<?xml version="1.0" standalone="no"?>
<!DOCTYPE svg PUBLIC "-//W3C//DTD SVG 1.1//EN" "http://www.w3.org/Graphics/SVG/1.1/DTD/svg11.dtd" >
<svg xmlns="http://www.w3.org/2000/svg">
<metadata>Generated by IcoMoon</metadata>
<defs>
<font id="icomoon" horiz-adv-x="1024">
<font-face units-per-em="1024" ascent="960" descent="-64" />
<missing-glyph horiz-adv-x="1024" />
<glyph unicode="&#x20;" horiz-adv-x="512" d="" />
<glyph unicode="&#xe900;" glyph-name="edit" d="M977.203 603.055c-24.034-0.559-43.371-19.896-43.929-43.877l-0.001-0.053v-359.834c-1.475-97.974-80.508-177.008-178.343-178.482l-0.14-0.002h-462.234c-0.518-0.005-1.131-0.007-1.744-0.007-113.357 0-205.332 91.547-206.025 204.741v485.749c0.803 88.521 72.349 160.067 160.794 160.87l0.076 0.001h348.16c0.633-0.033 1.375-0.051 2.12-0.051 24.262 0 43.93 19.668 43.93 43.93s-19.668 43.93-43.93 43.93c-0.746 0-1.487-0.019-2.224-0.055l0.104 0.004h-345.19c-0.061 0-0.133 0-0.205 0-137.2 0-248.422-111.222-248.422-248.422 0-0.072 0-0.144 0-0.216v0.011-482.714c0.87-161.763 132.205-292.56 294.089-292.56 0.505 0 1.011 0.001 1.516 0.004h462.156c146.83 0.522 265.718 119.41 266.24 266.19v357.016c-2.961 23.954-22.509 42.516-46.662 43.923l-0.135 0.006zM316.416 238.408c9.037-8.683 21.336-14.030 34.883-14.030 0.12 0 0.241 0 0.361 0.001h-0.019c15.286 0.652 28.907 7.279 38.684 17.588l0.024 0.025 573.44 591.462c8.54 9.282 13.775 21.72 13.775 35.382 0 28.899-23.427 52.326-52.326 52.326-13.661 0-26.1-5.235-35.419-13.809l0.037 0.034-577.331-594.944c-7.962-9.409-12.803-21.682-12.803-35.086 0-15.206 6.23-28.957 16.277-38.84l0.007-0.007z" />
<glyph unicode="&#xe901;" horiz-adv-x="1230" d="M703.471 158.584c0 0.019 0 0.042 0 0.064 0 168.569 136.652 305.221 305.221 305.221 74.012 0 141.872-26.343 194.714-70.165l-0.505 0.407v359.981c-0.141 113.010-91.715 204.584-204.711 204.725h-793.651c-113.010-0.141-204.584-91.715-204.725-204.711v-605.229c0.141-113.010 91.715-204.584 204.711-204.725h586.935c-54.423 54.918-88.051 130.524-88.051 213.983 0 0.158 0 0.316 0 0.474v-0.025z" />
<glyph unicode="&#xe902;" horiz-adv-x="1230" d="M787.85 158.522c0-121.968 98.874-220.842 220.842-220.842s220.842 98.874 220.842 220.842c0 121.968-98.874 220.842-220.842 220.842v0c-121.968 0-220.842-98.874-220.842-220.842v0z" />
<glyph unicode="&#xe903;" horiz-adv-x="1230" d="M525.254 436.426c26.265 28.363 42.376 66.456 42.376 108.313 0 88.151-71.46 159.611-159.611 159.611s-159.611-71.46-159.611-159.611c0-41.857 16.112-79.95 42.472-108.417l-0.095 0.104c-58.633-38.78-96.787-104.412-96.825-178.958v-0.006c-0.198-1.56-0.311-3.365-0.311-5.197 0-24.057 19.502-43.559 43.559-43.559s43.559 19.502 43.559 43.559c0 1.832-0.113 3.637-0.333 5.409l0.021-0.212c0 70.452 57.113 127.564 127.564 127.564s127.564-57.113 127.564-127.564v0c-0.198-1.56-0.311-3.365-0.311-5.197 0-24.057 19.502-43.559 43.559-43.559s43.559 19.502 43.559 43.559c0 1.832-0.113 3.637-0.333 5.409l0.021-0.212c-0.098 74.537-38.232 140.145-96.031 178.469l-0.794 0.495zM334.841 544.638c0 40.381 32.735 73.116 73.116 73.116s73.116-32.735 73.116-73.116c0-40.381-32.735-73.116-73.116-73.116v0c-40.367 0.035-73.081 32.749-73.116 73.113v0.003zM1020.391 588.196c0 24.057-19.502 43.559-43.559 43.559v0h-219.846c-1.56 0.198-3.365 0.311-5.197 0.311-24.057 0-43.559-19.502-43.559-43.559s19.502-43.559 43.559-43.559c1.832 0 3.637 0.113 5.409 0.333l-0.212-0.021h219.971c24.057 0 43.559 19.502 43.559 43.559v0zM1124.496 244.955c-6.835 5.731-15.725 9.212-25.428 9.212-12.271 0-23.241-5.567-30.524-14.313l-0.052-0.064-80.895-97.447-36.527 35.531c-7.138 6.948-16.898 11.233-27.66 11.233-21.909 0-39.671-17.761-39.671-39.671 0-11.148 4.598-21.222 12.002-28.429l0.009-0.009 67.267-65.4c7.132-6.944 16.876-11.235 27.623-11.263h2.121c11.432 0.628 21.495 6.011 28.324 14.187l0.051 0.063 108.399 130.676c5.808 6.835 9.341 15.762 9.341 25.513 0 12.246-5.57 23.19-14.315 30.438l-0.066 0.053z" />
<glyph unicode="&#xe904;" d="M272.989 626.316c31.723 103.868 126.72 178.117 239.058 178.117 111.603 0 206.090-73.28 237.971-174.348l0.481-1.767 180.41 103.61v53.667c-1.952 71.048-60.012 127.9-131.351 127.9-1.129 0-2.255-0.014-3.378-0.043l0.166 0.003h-568.692c-0.955 0.025-2.079 0.039-3.207 0.039-71.404 0-129.506-56.956-131.353-127.915l-0.004-0.171v-61.207z" />
<glyph unicode="&#xe905;" d="M754.455 528.663c-24.754-112.877-123.891-196.117-242.47-196.117-118.144 0-216.988 82.63-241.895 193.25l-0.313 1.656-176.873 97.187v-512.605c1.424-71.855 60.009-129.559 132.072-129.559 0.876 0 1.75 0.009 2.622 0.026l-0.131-0.002h568.692c0.797-0.017 1.735-0.027 2.676-0.027 72.080 0 130.677 57.732 132.071 129.479l0.002 0.13v518.842z" />
<glyph unicode="&#xe906;" d="M601.553 533.318h-49.478v29.231h49.478c18.798 2.061 33.292 17.851 33.292 37.027s-14.495 34.966-33.126 37.012l-0.167 0.015h-20.852l34.63 53.9c3.678 5.651 5.865 12.566 5.865 19.991 0 20.437-16.567 37.004-37.004 37.004-13.011 0-24.454-6.715-31.051-16.869l-0.087-0.144-40.588-63.162-45.615 59.299c-6.793 7.105-16.346 11.522-26.931 11.522-20.565 0-37.236-16.671-37.236-37.236 0-7.189 2.037-13.902 5.566-19.593l-0.092 0.159 34.583-44.963h-14.196c-1.183 0.133-2.555 0.209-3.944 0.209-20.565 0-37.236-16.671-37.236-37.236s16.671-37.236 37.236-37.236c1.389 0 2.761 0.076 4.111 0.224l-0.167-0.015h49.478v-29.231h-49.478c-1.183 0.133-2.555 0.209-3.944 0.209-20.565 0-37.236-16.671-37.236-37.236s16.671-37.236 37.236-37.236c1.389 0 2.761 0.076 4.111 0.224l-0.167-0.015h49.478v-24.809c2.061-18.798 17.851-33.292 37.027-33.292s34.966 14.495 37.012 33.126l0.015 0.167v24.809h49.478c19.013 1.837 33.757 17.733 33.757 37.073s-14.744 35.236-33.605 37.062l-0.152 0.012z" />
<glyph unicode="&#xe907;" d="M930.909 630.924l-176.454-102.4c-24.754-112.877-123.891-196.117-242.47-196.117-118.144 0-216.988 82.63-241.895 193.25l-0.313 1.656-176.873 97.187v-512.605c1.424-71.855 60.009-129.559 132.072-129.559 0.876 0 1.75 0.009 2.622 0.026l-0.131-0.002h61.673c312.571 22.010 567.847 243.288 640.741 536.624l1.027 4.886v107.055z" />
<glyph unicode="&#xe908;" d="M221.137 913.455c-70.718 0-128.047-57.328-128.047-128.047v-61.207l171.148-97.745c26.024 103.079 117.931 178.157 227.372 178.157 80.271 0 151.109-40.389 193.3-101.954l0.517-0.799c21.309 63.212 33.606 136.009 33.606 211.679 0 0.003 0 0.007 0 0.010v0z" />
<glyph unicode="&#xe909;" d="M581.12 532.433h-49.478v29.231h49.478c18.798 2.061 33.292 17.851 33.292 37.027s-14.495 34.966-33.126 37.012l-0.167 0.015h-20.852l34.63 53.9c3.678 5.651 5.865 12.566 5.865 19.991 0 20.437-16.567 37.004-37.004 37.004-13.011 0-24.454-6.715-31.051-16.869l-0.087-0.144-40.588-63.162-45.615 59.299c-6.657 10.749-18.386 17.802-31.762 17.802-20.565 0-37.236-16.671-37.236-37.236 0-9.98 3.926-19.043 10.318-25.729l-0.013 0.014 34.583-44.963h-14.196c-1.183 0.133-2.555 0.209-3.944 0.209-20.565 0-37.236-16.671-37.236-37.236s16.671-37.236 37.236-37.236c1.389 0 2.761 0.076 4.111 0.224l-0.167-0.015h49.478v-29.231h-49.478c-1.183 0.133-2.555 0.209-3.944 0.209-20.565 0-37.236-16.671-37.236-37.236s16.671-37.236 37.236-37.236c1.389 0 2.761 0.076 4.111 0.224l-0.167-0.015h49.478v-24.855c0.093-17.633 12.428-32.36 28.934-36.118l0.25-0.048q23.273 20.573 44.823 43.148v17.78h16.244c18.096 20.369 35.527 42.605 51.558 65.88l1.503 2.309c-5.533 3.785-12.37 6.046-19.734 6.051h-0.001zM418.583 344.623c-81.126 27.335-141.519 95.607-157.146 179.613l-0.224 1.449-168.122 96.116v-392.052c122.564 10.429 233.709 51.877 327.812 116.376l-2.319-1.502z" />
<glyph unicode="&#xe90a;" d="M502.691 913.455h-281.786c-70.618-0.132-127.814-57.41-127.814-128.046 0 0 0 0 0 0v0-61.207l171.148-97.745c22.462 88.566 93.141 156.117 181.805 173.694l1.491 0.247c19.993 32.199 38.542 69.445 53.587 108.433l1.57 4.626zM202.519 562.083l-109.428 62.79v-113.059c42.495 15.293 78.668 32.271 112.966 52.128l-3.305-1.766z" />
<glyph unicode="&#xe90b;" d="M170.667 960h682.667c94.257 0 170.667-76.41 170.667-170.667v-682.667c0-94.257-76.41-170.667-170.667-170.667h-682.667c-94.257 0-170.667 76.41-170.667 170.667v682.667c0 94.257 76.41 170.667 170.667 170.667z" />
<glyph unicode="&#xe90c;" d="M757.845 546.987c-0.049-46.573-37.815-84.309-84.395-84.309-46.61 0-84.395 37.785-84.395 84.395s37.785 84.395 84.395 84.395v0c46.62-0.049 84.395-37.853 84.395-84.48 0 0 0 0 0 0v0zM830.379 546.731c0-0.038 0-0.083 0-0.128 0-86.881-70.431-157.312-157.312-157.312v0l-150.912-110.421c-5.941-59.837-56.018-106.185-116.919-106.185-56.070 0-102.965 39.287-114.658 91.835l-0.146 0.782-290.133 126.037v148.437l345.131-148.437c16.903 10.432 37.391 16.613 59.322 16.613 4.444 0 8.829-0.254 13.141-0.748l-0.527 0.049 98.133 140.8c0.352 86.757 70.762 156.951 157.568 156.951 87.023 0 157.569-70.546 157.569-157.569 0-0.218 0-0.435-0.001-0.652v0.034zM491.52 290.347c0 0.046 0 0.101 0 0.156 0 47.67-38.644 86.315-86.315 86.315-6.669 0-13.162-0.756-19.396-2.188l0.58 0.112 35.968-14.507c26.123-10.091 44.316-35.003 44.316-64.163 0-37.891-30.717-68.608-68.608-68.608-9.722 0-18.971 2.022-27.351 5.668l0.443-0.172c-14.123 5.547-28.373 11.477-42.667 17.067 14.823-27.545 43.448-45.953 76.373-45.953 47.741 0 86.443 38.702 86.443 86.443 0 0.015 0 0.030 0 0.046v-0.002zM778.581 546.688c0 0.063 0 0.138 0 0.213 0 58.345-47.298 105.643-105.643 105.643s-105.643-47.298-105.643-105.643c0-58.345 47.298-105.643 105.643-105.643 0.075 0 0.15 0 0.225 0h-0.012c58.178 0.121 105.308 47.251 105.429 105.418v0.012z" />
<glyph unicode="&#xe90d;" glyph-name="input-search" d="M913.38 117.241l-188.18 188.18c43.5 57.412 69.68 130.039 69.68 208.78 0 0.134 0 0.267 0 0.401v-0.021c0 192.68-156.76 349.44-349.44 349.44s-349.44-156.76-349.44-349.44 156.76-349.44 349.44-349.44c0.113 0 0.246 0 0.38 0 78.741 0 151.368 26.18 209.65 70.311l-0.87-0.631 188.18-188.18c8.803-7.895 20.499-12.723 33.323-12.723 27.614 0 50 22.386 50 50 0 12.823-4.827 24.519-12.764 33.37l0.041-0.047zM195.84 514.581c0 137.85 111.75 249.6 249.6 249.6s249.6-111.75 249.6-249.6c0-137.85-111.75-249.6-249.6-249.6v0c-137.781 0.171-249.429 111.818-249.6 249.583v0.017z" />
<glyph unicode="&#xe90e;" glyph-name="weapp" d="M512 960c-282.77 0-512-229.23-512-512s229.23-512 512-512c282.77 0 512 229.23 512 512v0c0 282.77-229.23 512-512 512v0zM673.587 367.309h-26.982v107.52h26.982c44.678 0 80.896 36.218 80.896 80.896s-36.218 80.896-80.896 80.896c-44.678 0-80.896-36.218-80.896-80.896v0-269.261c0-104.144-84.425-188.57-188.57-188.57s-188.57 84.425-188.57 188.57c0 104.144 84.425 188.57 188.57 188.57v0h26.982v-107.52h-26.982c-44.678 0-80.896-36.218-80.896-80.896s36.218-80.896 80.896-80.896c44.678 0 80.896 36.218 80.896 80.896v0 269.261c0 104.144 84.425 188.57 188.57 188.57s188.57-84.425 188.57-188.57c0-104.144-84.425-188.57-188.57-188.57v0z" />
<glyph unicode="&#xe90f;" glyph-name="phone" horiz-adv-x="879" d="M791.343 960.021h-703.404c-48.909-1.52-87.98-41.533-87.98-90.671 0-0.95 0.015-1.897 0.044-2.841l-0.003 0.138v-837.254c-0.026-0.805-0.040-1.752-0.040-2.703 0-49.138 39.070-89.151 87.84-90.667l0.139-0.003h703.404c48.92 1.582 87.976 41.619 87.976 90.778 0 0.913-0.013 1.822-0.040 2.728l0.003-0.133v837.254c0.025 0.789 0.039 1.717 0.039 2.649 0 49.149-39.063 89.173-87.836 90.721l-0.142 0.004zM439.641 23.96c-48.568 0-87.939 39.372-87.939 87.939s39.372 87.939 87.939 87.939c48.568 0 87.939-39.372 87.939-87.939v0c0-48.568-39.372-87.939-87.939-87.939v0zM736.506 287.723h-593.729v496.419h593.674z" />
<glyph unicode="&#xe910;" glyph-name="nav-question" d="M881.459 96.563c88.249 91.1 142.643 215.45 142.643 352.504 0 0.147 0 0.294 0 0.44v-0.023c-0.466 282.050-229.219 510.516-511.334 510.516-0.234 0-0.468 0-0.702 0h0.036c-0.228 0-0.498 0.001-0.769 0.001-282.094 0-510.824-228.479-511.231-510.477v-0.038c0.52-279.373 225.095-506.121 503.581-510.152l0.381-0.004-0.358-0.358h367.258c0.358 0 76.39-0.973 106.854-1.485 0.079-0.003 0.171-0.005 0.264-0.005 3.591 0 6.502 2.911 6.502 6.502 0 1.402-0.444 2.701-1.199 3.763l0.014-0.020c-19.251 28.826-74.189 111.411-101.683 148.992zM516.659 117.043c-1.11-0.063-2.408-0.099-3.715-0.099-38.711 0-70.093 31.382-70.093 70.093 0 0.701 0.010 1.399 0.031 2.095l-0.002-0.102c-0.016 0.559-0.025 1.216-0.025 1.876 0 38.372 31.107 69.478 69.478 69.478 1.522 0 3.033-0.049 4.53-0.145l-0.204 0.011c1.335 0.091 2.895 0.142 4.466 0.142 38.711 0 70.093-31.382 70.093-70.093 0-0.446-0.004-0.891-0.012-1.335l0.001 0.067c0.008-0.396 0.013-0.863 0.013-1.331 0-39.079-31.68-70.758-70.758-70.758-1.337 0-2.666 0.037-3.985 0.11l0.183-0.008zM557.619 325.786h-83.558c-22.221 135.066 137.574 169.421 137.574 258.509 0.073 1.274 0.114 2.765 0.114 4.265 0 44.084-35.737 79.821-79.821 79.821-3.669 0-7.28-0.248-10.817-0.727l0.412 0.046c-48.194-2.031-90.619-25.097-118.586-60.194l-0.249-0.324-54.067 49.92c43.877 53.411 109.622 87.468 183.349 88.37l0.152 0.001c101.581 0 170.394-56.32 170.394-153.6 0-124.314-162.15-145.664-144.998-265.933z" />
<glyph unicode="&#xe911;" glyph-name="video" d="M896.093 913.455c2.77 0.295 5.983 0.463 9.236 0.463 14.403 0 28.037-3.296 40.188-9.175l-0.551 0.24c10.27-5.517 18.472-13.734 23.82-23.709l0.151-0.308c5.645-11.569 8.946-25.172 8.946-39.546 0-3.285-0.172-6.53-0.509-9.725l0.034 0.399v-126.557c-0.017-33.741-26.351-61.325-59.587-63.34l-0.177-0.009h-90.671c-0.018 0-0.040 0-0.062 0-12.262 0-22.202-9.94-22.202-22.202 0-7.25 3.475-13.688 8.849-17.74l0.056-0.041 2.141-1.396 145.967-85.178c8.614-5.094 14.551-13.929 15.582-24.21l0.011-0.133v-386.42c0.45-4.183 0.707-9.036 0.707-13.949 0-21.574-4.949-41.992-13.773-60.181l0.359 0.821c-8.267-15.405-20.575-27.713-35.519-35.753l-0.461-0.227c-17.37-8.467-37.791-13.417-59.368-13.417-4.926 0-9.792 0.258-14.585 0.761l0.598-0.051h-686.639c-4.193-0.452-9.056-0.709-13.979-0.709-21.58 0-42.004 4.95-60.198 13.776l0.822-0.36c-15.403 8.269-27.71 20.576-35.753 35.519l-0.227 0.461c-8.494 17.377-13.461 37.812-13.461 59.407 0 4.912 0.257 9.765 0.758 14.545l-0.051-0.596v686.452c-0.452 4.193-0.709 9.056-0.709 13.979 0 21.58 4.95 42.004 13.776 60.198l-0.36-0.822c8.269 15.403 20.576 27.71 35.519 35.753l0.461 0.227c17.377 8.494 37.812 13.461 59.407 13.461 4.912 0 9.765-0.257 14.545-0.758l-0.596 0.051h727.505zM419.98 512.233c-19.28 0-34.909-15.629-34.909-34.909v0-206.801c0.001-19.279 15.63-34.908 34.909-34.908 5.683 0 11.049 1.358 15.791 3.767l-0.199-0.092 206.801 103.377c11.542 5.856 19.314 17.636 19.314 31.232s-7.772 25.376-19.115 31.14l-0.199 0.092-206.801 103.377c-4.543 2.318-9.909 3.677-15.593 3.677v0zM221.091 835.863h-8.006c-1.187 0.103-2.569 0.161-3.964 0.161-5.854 0-11.468-1.031-16.669-2.922l0.339 0.108c-4.514-1.819-8.31-4.599-11.276-8.104l-0.035-0.042c-3.437-4.224-6.105-9.228-7.698-14.689l-0.075-0.298-1.164-3.398-16.756-50.362c-0.921-2.652-1.453-5.709-1.453-8.89 0-14.444 10.965-26.326 25.025-27.778l0.12-0.010h10.845c1.187-0.103 2.569-0.161 3.964-0.161 5.854 0 11.468 1.031 16.669 2.922l-0.339-0.108c4.516 1.816 8.313 4.596 11.276 8.103l0.035 0.042c3.428 4.228 6.094 9.23 7.697 14.686l0.076 0.301 1.164 3.398 16.803 50.362c0.921 2.652 1.453 5.709 1.453 8.89 0 14.444-10.965 26.326-25.025 27.778l-0.12 0.010zM376.227 835.863h-8.006c-1.185 0.102-2.565 0.161-3.958 0.161-5.856 0-11.472-1.031-16.675-2.922l0.34 0.108c-4.512-1.825-8.307-4.603-11.276-8.104l-0.034-0.041c-3.428-4.228-6.094-9.23-7.697-14.686l-0.076-0.301-1.164-3.398-16.803-50.362c-0.921-2.652-1.453-5.709-1.453-8.89 0-14.444 10.965-26.326 25.025-27.778l0.12-0.010h10.845c1.191-0.104 2.577-0.163 3.977-0.163 5.85 0 11.46 1.032 16.656 2.924l-0.339-0.108c4.518 1.81 8.316 4.591 11.276 8.103l0.035 0.043c3.437 4.224 6.105 9.228 7.698 14.689l0.075 0.298 1.164 3.398 16.756 50.362c0.921 2.652 1.453 5.709 1.453 8.89 0 14.444-10.965 26.326-25.025 27.778l-0.12 0.010zM531.409 835.863h-8.006c-1.182 0.102-2.557 0.159-3.946 0.159-5.861 0-11.481-1.031-16.689-2.92l0.34 0.108c-4.512-1.825-8.307-4.603-11.276-8.104l-0.034-0.041c-3.419-4.226-6.071-9.23-7.653-14.689l-0.074-0.298-1.164-3.398-16.756-50.362c-0.922-2.653-1.454-5.712-1.454-8.894 0-14.428 10.941-26.3 24.978-27.773l0.121-0.010h10.845c1.185-0.102 2.565-0.161 3.958-0.161 5.856 0 11.472 1.031 16.675 2.922l-0.34-0.108c4.516 1.816 8.313 4.596 11.276 8.103l0.035 0.042c3.417 4.227 6.070 9.23 7.652 14.689l0.074 0.299 1.164 3.398 16.756 50.362c0.922 2.653 1.454 5.712 1.454 8.894 0 14.428-10.941 26.3-24.978 27.773l-0.121 0.010zM686.545 835.863h-8.006c-1.187 0.103-2.569 0.161-3.964 0.161-5.854 0-11.468-1.031-16.669-2.922l0.339 0.108c-4.515-1.818-8.311-4.597-11.276-8.103l-0.035-0.042c-3.437-4.224-6.105-9.228-7.698-14.689l-0.075-0.298-1.164-3.398-16.756-50.362c-0.921-2.652-1.453-5.709-1.453-8.89 0-14.444 10.965-26.326 25.025-27.778l0.12-0.010h10.845c1.189-0.103 2.573-0.162 3.97-0.162 5.852 0 11.464 1.032 16.662 2.923l-0.339-0.108c4.515 1.818 8.311 4.597 11.276 8.103l0.035 0.042c3.428 4.228 6.094 9.23 7.697 14.686l0.076 0.301 1.164 3.398 16.803 50.362c0.921 2.652 1.453 5.709 1.453 8.89 0 14.444-10.965 26.326-25.025 27.778l-0.12 0.010h-2.839zM841.681 835.863h-8.006c-1.185 0.102-2.565 0.161-3.958 0.161-5.856 0-11.472-1.031-16.675-2.922l0.34 0.108c-4.512-1.825-8.307-4.603-11.276-8.104l-0.034-0.041c-3.428-4.228-6.094-9.23-7.697-14.686l-0.076-0.301-1.164-3.398-16.803-50.362c-0.921-2.652-1.453-5.709-1.453-8.89 0-14.444 10.965-26.326 25.025-27.778l0.12-0.010h10.845c1.191-0.104 2.577-0.163 3.977-0.163 5.85 0 11.46 1.032 16.656 2.924l-0.339-0.108c4.518 1.81 8.316 4.591 11.276 8.103l0.035 0.043c3.437 4.224 6.105 9.228 7.698 14.689l0.075 0.298 1.164 3.398 16.756 50.362c0.921 2.652 1.453 5.709 1.453 8.89 0 14.444-10.965 26.326-25.025 27.778l-0.12 0.010z" />
<glyph unicode="&#xe912;" glyph-name="all" horiz-adv-x="1028" d="M339.219 468.455h-225.86c-0.017 0-0.037 0-0.057 0-62.575 0-113.302 50.727-113.302 113.302 0 0.020 0 0.040 0 0.060v-0.003 200.892c0 76.396 61.931 138.327 138.327 138.327v0h200.892c62.562-0.033 113.269-50.74 113.302-113.299v-225.863c0-62.575-50.727-113.302-113.302-113.302v0zM339.219-62.914h-225.86c-0.017 0-0.037 0-0.057 0-62.575 0-113.302 50.727-113.302 113.302 0 0.1 0 0.201 0 0.301v-0.016 200.892c0 76.396 61.931 138.327 138.327 138.327v0h200.892c62.575 0 113.302-50.727 113.302-113.302v0-225.86c0-62.575-50.727-113.302-113.302-113.302v0zM871.103-62.914h-225.86c-62.575 0-113.302 50.727-113.302 113.302v0 200.892c0 76.396 61.931 138.327 138.327 138.327v0h200.892c62.575 0 113.302-50.727 113.302-113.302v0-225.86c-0.033-62.582-50.773-113.302-113.359-113.302v0zM678.039 462.741l-156.782 156.782c-20.5 20.512-33.179 48.842-33.179 80.134s12.679 59.622 33.18 80.134l139.127 139.127c25.030 25.019 59.603 40.492 97.789 40.492s72.759-15.474 97.79-40.493l139.127-139.127c20.5-20.512 33.179-48.842 33.179-80.134s-12.679-59.622-33.18-80.134l-156.782-156.782c-20.497-20.415-48.77-33.037-79.991-33.037s-59.494 12.621-79.995 33.040l0.004-0.004z" />
<glyph unicode="&#xe913;" glyph-name="invite-user" d="M528.213 168.526c0 0.045 0 0.098 0 0.152 0 79.216 35.144 150.223 90.691 198.281l0.331 0.28c-33.634 5.322-72.417 8.363-111.911 8.363-0.156 0-0.312 0-0.469 0h0.024c-257.024 0-465.465-126.919-465.465-283.42s208.384-130.105 465.465-130.105c42.724 0 84.025-0.74 123.335-1.252-62.234 48.428-101.888 123.338-101.888 207.511 0 0.067 0 0.134 0 0.201v-0.011zM506.823 960.078c-155.586 0-281.714-126.128-281.714-281.714s126.128-281.714 281.714-281.714c155.586 0 281.714 126.128 281.714 281.714v0c-0.033 155.562-126.148 281.657-281.714 281.657-0.020 0-0.040 0-0.060 0h0.003zM506.823 503.26c-3.573-0.458-7.706-0.719-11.9-0.719-51.032 0-93.034 38.662-98.314 88.293l-0.037 0.432h59.79c9.345-18.784 28.408-31.464 50.432-31.464s41.086 12.68 50.285 31.138l0.147 0.326h59.79c-5.317-50.064-47.319-88.726-98.351-88.726-4.194 0-8.327 0.261-12.384 0.768l0.484-0.049zM794.51 380.551c-116.25 0-210.489-94.239-210.489-210.489s94.239-210.489 210.489-210.489c116.25 0 210.489 94.239 210.489 210.489v0c0 116.25-94.239 210.489-210.489 210.489v0zM902.599 145.372h-83.172v-83.57h-50.176v83.285h-83.57v50.176h83.57v83.57h50.176v-83.57h83.57z" />
<glyph unicode="&#xe914;" glyph-name="task-cup" d="M927.289 808.981h-32.256v31.403c-0.605 34.692-28.87 62.583-63.65 62.583-0.283 0-0.566-0.002-0.848-0.006h-580.224c-0.24 0.003-0.522 0.005-0.806 0.005-34.779 0-63.045-27.891-63.649-62.526l-0.001-0.057v-31.403h-32.256c-0.341 0.004-0.745 0.007-1.148 0.007-52.286 0-94.766-41.987-95.562-94.083l-0.001-0.075v-62.578c0.797-52.171 43.277-94.158 95.563-94.158 0.404 0 0.807 0.003 1.209 0.007l-0.061-0.001h32.256c2.818-181.381 143.124-329.115 321.135-343.697l1.254-0.083v-95.858h-90.51c-0.078 0.001-0.17 0.001-0.262 0.001-13.523 0-25.099-8.337-29.869-20.151l-0.077-0.216-24.178-62.578c-1.298-3.271-2.051-7.060-2.051-11.025 0-6.709 2.155-12.915 5.81-17.964l-0.062 0.089c5.97-8.208 15.543-13.483 26.347-13.483 0.057 0 0.115 0 0.172 0h293.822c0.049 0 0.106 0 0.163 0 10.804 0 20.377 5.275 26.282 13.39l0.065 0.093c3.594 4.959 5.748 11.165 5.748 17.874 0 3.965-0.753 7.755-2.123 11.233l0.072-0.208-24.178 62.578c-4.847 12.031-16.423 20.367-29.946 20.367-0.092 0-0.184 0-0.276-0.001h-90.496v95.687c179.266 14.665 319.571 162.399 322.386 343.501l0.003 0.278h32.199c0.341-0.004 0.745-0.007 1.148-0.007 52.286 0 94.766 41.987 95.562 94.083l0.001 0.075v62.578c-0.797 52.171-43.277 94.158-95.563 94.158-0.404 0-0.807-0.003-1.209-0.007l0.061 0.001zM153.6 620.679c-0.119-0.002-0.26-0.003-0.401-0.003-17.435 0-31.599 14.006-31.854 31.381v62.602c0.255 17.399 14.419 31.405 31.855 31.405 0.141 0 0.282-0.001 0.423-0.003h32.235v-125.554zM665.202 622.499l-52.053-51.769 11.719-71.111c0.467-1.336 0.736-2.876 0.736-4.48 0-3.158-1.046-6.071-2.81-8.413l0.026 0.036c-2.732-3.478-6.938-5.691-11.66-5.691-0.081 0-0.161 0.001-0.242 0.002h0.012c-2.487 0.008-4.834 0.596-6.917 1.634l0.091-0.041-63.659 33.963-63.659-34.133c-1.412-6.782-7.34-11.804-14.44-11.804-6.5 0-12.017 4.209-13.974 10.051l-0.030 0.104c-0.386 1.226-0.608 2.636-0.608 4.098 0 5.325 2.95 9.961 7.305 12.363l0.073 0.037 12.402 73.33-51.883 51.826c-2.585 2.523-4.188 6.042-4.188 9.936 0 1.638 0.284 3.209 0.804 4.668l-0.030-0.097c1.793 5.077 6.214 8.796 11.586 9.549l0.076 0.009 71.282 10.468 32.085 66.219c2.491 4.909 7.501 8.214 13.284 8.214s10.793-3.305 13.245-8.13l0.039-0.084 31.858-66.446 71.168-10.695c5.339-0.885 9.635-4.594 11.347-9.513l0.031-0.101c0.476-1.345 0.751-2.897 0.751-4.513 0-3.889-1.593-7.407-4.162-9.935l-0.002-0.002zM959.488 652.309c-0.255-17.399-14.419-31.405-31.855-31.405-0.141 0-0.282 0.001-0.423 0.003h-32.235v125.326h32.313c0.119 0.002 0.26 0.003 0.401 0.003 17.435 0 31.599-14.006 31.854-31.381v-0.024z" />
<glyph unicode="&#xe915;" glyph-name="task-coin" horiz-adv-x="964" d="M0 259.696v-75.183c0.285-137.123 215.974-248.573 482.069-248.573s481.784 111.206 482.069 248.573v75.183c-90.098-98.777-270.008-164.873-482.069-164.873s-392.094 66.096-482.069 164.873zM878.157 411.57c-1.222-0.693-2.608-1.385-3.708-2.078-12.551-7.457-25.795-14.466-39.731-21.231-6.887-3.301-14.222-6.357-21.394-9.535-10.228-4.401-20.375-8.68-31.337-12.714-7.457-2.771-14.914-5.501-22.616-8.15-14.344-4.849-29.095-9.087-44.132-13.121-5.094-1.385-9.943-2.893-15.159-4.075-18.745-4.564-38.345-8.557-58.231-11.858-6.887-1.222-13.936-2.078-20.986-3.178-15.729-2.363-31.581-4.075-47.881-5.664-6.887-0.693-13.814-1.385-20.823-1.793-22.901-1.671-46.088-2.771-69.967-2.771s-47.066 1.1-69.967 2.771c-7.050 0.57-13.936 1.222-20.823 1.793-16.3 1.508-32.152 3.464-47.881 5.664-7.050 0.978-14.059 1.915-21.108 3.178-19.723 3.301-39.201 7.335-57.824 11.858-5.379 1.385-10.473 2.893-15.729 4.075-15.037 4.075-29.788 8.15-44.010 13.121-7.742 2.608-15.159 5.379-22.616 8.15-10.758 4.075-21.108 8.15-31.337 12.714-7.172 3.178-14.507 6.194-21.394 9.535-13.814 6.642-27.18 13.814-39.731 21.231l-3.871 2.078c-32.839 19.557-61.087 42.384-85.703 68.655l-0.197 0.212v-75.346c0.776-32.226 11.852-61.721 30.046-85.477l-0.258 0.351c0.57-0.815 1.1-1.508 1.671-2.363 4.615-6.289 9.090-11.772 13.821-17.021l-0.17 0.191c0.582-0.69 1.168-1.315 1.785-1.907l0.008-0.008c22.961-24.057 49.428-44.497 78.639-60.564l1.679-0.846c2.2-1.263 4.075-2.486 6.642-3.708 6.479-3.464 13.121-6.764 20.008-10.065 3.586-1.793 7.294-3.464 11.043-5.094 6.479-2.893 12.958-5.786 19.601-8.435 4.686-1.915 9.372-3.708 14.222-5.501 6.357-2.363 12.673-4.808 19.315-7.050s13.121-4.075 19.723-6.194c7.742-2.363 15.607-4.686 23.716-6.887 9.535-2.608 19.315-4.971 29.258-7.294 5.257-1.1 10.636-2.2 15.852-3.178 8.15-1.671 16.707-3.301 25.265-4.849 5.501-0.978 11.165-1.793 16.83-2.608 8.843-1.222 17.645-2.486 26.61-3.586 5.501-0.693 11.043-1.222 16.707-1.793 9.78-0.978 19.886-1.671 29.951-2.363 4.808-0.285 9.658-0.693 14.466-0.978 15.037-0.693 30.196-1.222 45.517-1.222s30.481 0.407 45.517 1.222c4.849 0.285 9.658 0.693 14.466 0.978 10.065 0.693 20.008 1.385 29.951 2.363 5.664 0.57 11.165 1.222 16.707 1.793 8.965 1.1 17.808 2.2 26.61 3.586 5.664 0.815 11.328 1.671 16.83 2.608 8.557 1.385 16.952 3.056 25.265 4.849 5.379 1.1 10.758 2.078 15.852 3.178 9.943 2.2 19.601 4.686 29.258 7.294 8.15 2.2 15.852 4.401 23.716 6.887 6.642 2.078 13.366 4.075 19.723 6.194s12.958 4.686 19.315 7.050c4.808 1.793 9.535 3.586 14.222 5.501 6.764 2.771 13.244 5.501 19.601 8.435 3.708 1.671 7.294 3.464 11.043 5.094 6.764 3.301 13.529 6.642 20.008 10.065l6.642 3.708c30.889 16.913 57.357 37.352 80.198 61.283l0.12 0.127c0.693 0.693 1.222 1.385 1.915 2.078 4.569 5.032 9.044 10.475 13.244 16.134l0.407 0.573c0.57 0.815 1.1 1.671 1.671 2.363 17.914 23.415 28.985 52.904 29.784 84.943l0.004 0.184v75.306c-24.682-26.585-52.925-49.38-84.085-67.758l-1.734-0.946zM964.139 711.448c0 137.408-215.974 248.573-482.069 248.573s-482.069-111.328-482.069-248.573v-85.574c0.776-32.226 11.852-61.721 30.046-85.477l-0.258 0.351c0.57-0.815 1.1-1.508 1.671-2.363 4.615-6.289 9.090-11.772 13.821-17.021l-0.17 0.191c0.582-0.69 1.168-1.315 1.785-1.908l0.008-0.008c22.961-24.057 49.429-44.497 78.64-60.564l1.678-0.846 6.642-3.708c6.479-3.464 13.121-6.764 20.008-10.065 3.586-1.793 7.172-3.464 10.88-5.094 6.479-2.893 12.958-5.786 19.723-8.557 4.564-1.915 9.372-3.586 14.059-5.379 6.479-2.486 12.836-4.808 19.438-7.172s12.958-4.075 19.601-6.072 11.858-3.708 18.093-5.379c0.285 0 0.407 0 0.693 0 1.793-0.57 3.708-0.978 5.664-1.385 9.372-2.486 18.908-4.971 28.525-7.172 2.078-0.407 4.075-0.978 6.357-1.385l4.564-0.815c1.671-0.285 3.301-0.57 4.971-0.978 8.15-1.671 16.707-3.301 25.265-4.849 2.893-0.57 5.664-1.1 8.68-1.508s5.664-0.693 8.435-1.1c8.68-1.222 17.522-2.486 26.365-3.464 3.586-0.407 7.050-0.978 10.636-1.385 2.2-0.285 4.401-0.285 6.642-0.57 9.658-0.978 19.438-1.671 29.381-2.363 3.871-0.285 7.457-0.693 11.328-0.815 0.536 0.033 1.162 0.052 1.793 0.052s1.257-0.019 1.879-0.056l-0.086 0.004c14.914-0.693 29.951-1.1 45.273-1.1s30.359 0.407 45.273 1.1c0.536-0.033 1.162-0.052 1.793-0.052s1.257 0.019 1.879 0.056l-0.086-0.004c3.871 0 7.457 0.57 11.328 0.815 9.943 0.693 19.723 1.385 29.381 2.363 2.2 0.285 4.401 0.285 6.642 0.57 3.586 0.407 7.050 0.978 10.636 1.385 8.843 1.1 17.645 2.2 26.365 3.464 2.771 0.407 5.664 0.693 8.435 1.1s5.786 1.1 8.68 1.508c8.557 1.385 16.952 3.015 25.265 4.849 1.671 0.285 3.301 0.57 4.808 0.978s3.178 0.57 4.808 0.978 4.075 0.978 6.357 1.385c9.78 2.2 19.315 4.686 28.525 7.172 1.793 0.57 3.871 0.978 5.664 1.385 0.285 0 0.407 0 0.693 0 6.194 1.671 12.021 3.586 18.093 5.379s13.244 4.075 19.601 6.072 12.958 4.686 19.438 7.172c4.686 1.793 9.535 3.586 14.059 5.379 6.764 2.771 13.244 5.664 19.723 8.557 3.708 1.671 7.294 3.464 10.88 5.094 6.764 3.301 13.529 6.642 20.008 10.065 2.363 1.222 4.401 2.486 6.642 3.708 30.889 16.913 57.357 37.352 80.198 61.283l0.12 0.127c0.693 0.693 1.222 1.385 1.915 2.078 4.571 5.032 9.045 10.476 13.245 16.135l0.406 0.572c0.57 0.815 1.1 1.671 1.671 2.363 17.914 23.415 28.985 52.904 29.784 84.943l0.004 0.184v85.574z" />
<glyph unicode="&#xe916;" horiz-adv-x="922" d="M-0.102 918.63c0 0.059 0 0.128 0 0.197 0 11.205 4.28 21.41 11.294 29.070l-0.029-0.032c6.749 7.378 16.394 12.009 27.123 12.083h844.813c10.742-0.074 20.387-4.705 27.111-12.055l0.025-0.028c6.985-7.621 11.265-17.819 11.265-29.018 0-0.076 0-0.153-0.001-0.229v0.012-718.746c0.003-0.172 0.004-0.375 0.004-0.578 0-15.529-8.473-29.080-21.048-36.281l-0.204-0.108-405.248-218.214c-9.914-5.511-21.743-8.755-34.33-8.755s-24.416 3.244-34.697 8.942l0.367-0.187-405.248 218.214c-12.779 7.309-21.252 20.859-21.252 36.389 0 0.203 0.001 0.406 0.004 0.608v-0.031z" />
<glyph unicode="&#xe917;" horiz-adv-x="922" d="M436.378 755.456c3.306 7.131 10.404 11.989 18.637 11.989s15.33-4.857 18.584-11.862l0.053-0.126 59.904-125.44c2.995-6.233 8.881-10.659 15.872-11.56l0.102-0.011 137.882-18.176c10.285-1.188 18.197-9.846 18.197-20.352 0-5.985-2.567-11.371-6.661-15.115l-0.016-0.014-100.864-95.744c-4.007-3.748-6.504-9.067-6.504-14.97 0-1.351 0.131-2.672 0.381-3.95l-0.021 0.129 25.6-136.704c0.267-1.24 0.42-2.664 0.42-4.124 0-11.311-9.169-20.48-20.48-20.48-3.733 0-7.232 0.999-10.246 2.743l0.098-0.053-122.163 66.56c-2.85 1.6-6.256 2.542-9.882 2.542s-7.031-0.942-9.985-2.595l0.104 0.053-122.214-66.56c-2.915-1.692-6.415-2.691-10.148-2.691-11.311 0-20.48 9.169-20.48 20.48 0 1.46 0.153 2.885 0.443 4.258l-0.024-0.134 25.293 136.704c0.234 1.161 0.367 2.496 0.367 3.861 0 5.881-2.479 11.184-6.45 14.919l-0.011 0.010-100.966 95.744c-4.113 3.759-6.682 9.147-6.682 15.134 0 10.49 7.887 19.138 18.055 20.338l0.096 0.009 137.882 18.176c7.093 0.912 12.979 5.338 15.921 11.449l0.053 0.123 59.853 125.44z" />
<glyph unicode="&#xe928;" glyph-name="fire" d="M319.806-56.988c-67.337 141.736-31.779 223.197 21.186 297.596 32.306 47.574 56.839 103.337 70.229 163.304l0.604 3.219c20.653-29.862 32.991-66.847 32.991-106.714 0-14.921-1.728-29.439-4.996-43.364l0.253 1.28c52.168 65.846 83.689 150.119 83.689 241.755 0 14.683-0.809 29.177-2.386 43.44l0.158-1.758c177.152-124.010 255.082-396.818 152.329-595.191 545.651 311.79 134.638 775.91 63.806 825.485 24.717-52.966 28.248-141.736-21.186-184.249-81.496 311.79-283.436 371.994-283.436 371.994 24.717-159.426-84.992-333.012-191.276-464.119 0.039 1.914 0.061 4.169 0.061 6.43 0 60.075-15.734 116.476-43.307 165.305l0.873-1.681c-7.062-116.913-95.656-209.002-120.479-325.914-31.779-159.462 24.717-272.808 240.922-396.818zM319.806-56.988" />
<glyph unicode="&#xe932;" glyph-name="trash" d="M970.094 785.21h-269.458c-3.971 97.442-83.928 174.933-181.984 174.933-2.339 0-4.668-0.044-6.986-0.132l0.334 0.010c-1.984 0.077-4.313 0.122-6.652 0.122-98.056 0-178.012-77.491-181.972-174.574l-0.012-0.359h-269.458c-0.558 0.021-1.213 0.034-1.87 0.034-28.028 0-50.884-22.141-52.032-49.886l-0.003-0.104c1.152-27.849 24.008-49.99 52.036-49.99 0.658 0 1.313 0.012 1.965 0.036l-0.094-0.003h45.568l66.341-625.371c10.381-70.483 70.442-123.973 142.997-123.973 1.568 0 3.13 0.025 4.686 0.075l-0.227-0.006h397.458c1.35-0.045 2.938-0.071 4.531-0.071 72.556 0 132.618 53.491 142.902 123.189l0.095 0.787 66.341 625.371h51.858c26.28 1.932 46.948 23.439 47.542 49.899l0.001 0.058c-1.152 27.849-24.008 49.99-52.036 49.99-0.658 0-1.313-0.012-1.965-0.036l0.094 0.003zM431.177 185.438l-0.366-5.12c-3.12-17.123-17.059-30.217-34.355-32.022l-0.168-0.014c-1.883-0.314-4.053-0.493-6.264-0.493-19.451 0-35.66 13.881-39.263 32.277l-0.041 0.253-0.366 5.12v350.354l0.366 5.12c4.106 18.625 20.473 32.354 40.046 32.354s35.94-13.729 39.995-32.082l0.050-0.272 0.366-5.12zM512 860.108c0.826 0.031 1.796 0.049 2.771 0.049 42.028 0 76.304-33.19 78.047-74.79l0.005-0.158h-161.646c1.748 41.757 36.024 74.947 78.052 74.947 0.974 0 1.945-0.018 2.91-0.053l-0.14 0.004zM673.719 185.731l-0.366-5.12c-3.12-17.123-17.059-30.217-34.355-32.022l-0.168-0.014c-1.883-0.314-4.053-0.493-6.264-0.493-19.451 0-35.66 13.881-39.263 32.277l-0.041 0.253-0.366 5.12v350.062l0.366 5.12c4.106 18.625 20.473 32.354 40.046 32.354s35.94-13.729 39.995-32.082l0.050-0.272 0.366-5.12z" />
<glyph unicode="&#xe933;" glyph-name="click" d="M394.667 874.688c17.673 0 32-14.327 32-32v0-106.667c0-17.673-14.327-32-32-32s-32 14.327-32 32v0 106.667c0 17.673 14.327 32 32 32v0zM190.72 790.634c5.789 5.782 13.784 9.359 22.613 9.359s16.824-3.576 22.614-9.359v0l74.667-74.667c6.274-5.858 10.185-14.178 10.185-23.412 0-17.673-14.327-32-32-32-9.234 0-17.554 3.911-23.394 10.166l-0.017 0.019-74.667 74.667c-5.782 5.789-9.359 13.784-9.359 22.613s3.576 16.824 9.359 22.614v0zM598.613 790.634c5.782-5.789 9.359-13.784 9.359-22.613s-3.576-16.824-9.359-22.614v0l-74.667-74.667c-5.858-6.274-14.178-10.185-23.412-10.185-17.673 0-32 14.327-32 32 0 9.234 3.911 17.554 10.166 23.394l0.019 0.017 74.667 74.667c5.789 5.782 13.784 9.359 22.613 9.359s16.824-3.576 22.614-9.359v0zM106.667 586.688c0 17.673 14.327 32 32 32v0h106.667c17.673 0 32-14.327 32-32s-14.327-32-32-32v0h-106.667c-17.673 0-32 14.327-32 32v0zM362.667 555.242c0 48.085 56.405 74.027 92.885 42.709l361.003-309.419c38.827-33.28 16.725-96.896-34.347-98.987l-163.84-6.528c-17.621-0.683-34.176-8.533-45.952-21.632l-111.531-124.672c-34.432-38.528-98.219-14.123-98.219 37.547v480.939z" />
<glyph unicode="&#xe934;" glyph-name="shop-cart" horiz-adv-x="1152" d="M1056.24 357.383l94.546 416c6.826 30.036-16.004 58.638-46.806 58.638h-785.564l-18.332 89.62c-4.568 22.338-24.224 38.38-47.026 38.38h-205.058c-26.51 0-48-21.49-48-48v-32c0-26.51 21.49-48 48-48h139.766l140.496-686.87c-33.612-19.33-56.262-55.574-56.262-97.13 0-61.856 50.144-112 112-112s112 50.144 112 112c0 31.348-12.894 59.67-33.648 80h419.294c-20.752-20.33-33.646-48.652-33.646-80 0-61.856 50.144-112 112-112s112 50.144 112 112c0 44.344-25.776 82.664-63.158 100.81l11.034 48.552c6.826 30.036-16.004 58.638-46.806 58.638h-536.836l-13.090 64h586.29c22.412 0 41.84 15.508 46.806 37.362z" />
<glyph unicode="&#xe935;" glyph-name="eye-off" horiz-adv-x="1869" d="M855.222 283.039c-77.087 5.282-148.804 18.037-217.626 37.658l7.383-1.8-140.162-299.947c-13.95-29.399-43.392-49.365-77.498-49.365-47.228 0-85.515 38.286-85.515 85.515 0 13.123 2.956 25.555 8.238 36.668l-0.222-0.518 134.205 287.916c-117.49 56.061-216.771 132.142-297.501 224.807l-0.927 1.087c-58.928 67.801-106.815 147.13-139.666 233.853l-1.781 5.357c-3.941 9.48-6.229 20.491-6.229 32.037 0 47.22 38.279 85.499 85.499 85.499 37.797 0 69.865-24.526 81.159-58.531l0.174-0.604c27.084-71.942 64.53-133.918 111.241-187.622l-0.629 0.739c153.76-163.25 371.35-264.905 612.683-264.905s458.923 101.655 612.287 264.481l0.396 0.424c46.081 52.964 83.527 114.94 109.219 182.699l1.392 4.183c11.467 34.609 43.536 59.135 81.333 59.135 47.22 0 85.499-38.279 85.499-85.499 0-11.546-2.289-22.557-6.437-32.605l0.208 0.568c-34.63-92.080-82.517-171.41-142.258-240.164l0.811 0.954q-18.104-21.141-37.61-40.997l209.192-209.192c14.761-15.342 23.853-36.231 23.853-59.244 0-47.22-38.279-85.499-85.499-85.499-23.013 0-43.902 9.092-59.271 23.879l0.028-0.026-219.821 219.821c-37.286-25.952-80.005-50.922-124.664-72.508l-5.686-2.478 134.088-287.332c5.061-10.595 8.017-23.027 8.017-36.15 0-47.228-38.286-85.515-85.515-85.515-34.106 0-63.548 19.966-77.276 48.847l-0.222 0.518-140.162 299.713c-53.089-15.405-115.774-27.289-180.159-33.324l-4.154-0.315v-261.869c0-47.22-38.279-85.499-85.499-85.499s-85.499 38.279-85.499 85.499v0zM267.476 597.819c15.342 14.761 36.231 23.853 59.244 23.853 47.22 0 85.499-38.279 85.499-85.499 0-23.013-9.092-43.902-23.879-59.271l0.026 0.028-242.947-242.947c-15.48-15.494-36.872-25.078-60.503-25.078-47.233 0-85.523 38.29-85.523 85.523 0 23.602 9.561 44.971 25.021 60.445l243.063 243.063z" />
<glyph unicode="&#xe936;" glyph-name="knife" horiz-adv-x="1877" d="M662.748 721l147.939-99.203-32.053-47.849c6.527-4.401 14.682-6.508 23.134-5.32 9.733 1.368 17.883 6.826 22.957 14.394l0.023 0.035 13.605 20.31 49.831-33.584-32.053-47.849c6.527-4.401 14.682-6.508 23.134-5.32 9.733 1.368 17.883 6.826 22.957 14.394l0.023 0.035 13.605 20.31 50.042-33.554-32.053-47.849c6.527-4.401 14.682-6.508 23.134-5.32 9.733 1.368 17.883 6.826 22.957 14.394l0.023 0.035 13.605 20.31 101.554-68.065-148.281-221.189c-249.348 149.063-412.607 330.906-477.5 550.141 55.988-32.292 123.33-47.587 193.078-39.297l0.337 0.042zM1108.042 424.848l29.624-19.792c4.035-2.713 6.931-7.044 7.658-12.215 0.632-4.498-0.489-8.839-2.844-12.33l0.012 0.018-6.696-9.989 234.751-157.405c4.035-2.713 6.931-7.044 7.658-12.215 0.632-4.498-0.489-8.839-2.844-12.33l0.012 0.018-26.646-39.722c-12.503-18.495-32.405-31.767-56.151-35.104-3.384-0.476-6.749-0.736-10.080-0.791l0.397 0.016c-96.688 0.009-184.503 41.239-245.338 108.684l-0.895 1.048-23.328-34.817c-2.713-4.035-7.044-6.931-12.215-7.658-4.498-0.632-8.839 0.489-12.33 2.844l0.018-0.012-29.54 19.804zM1291.786 141.702c3.335-2.214 7.487-3.269 11.788-2.664 4.997 0.702 9.182 3.502 11.792 7.384l0.012 0.018 30.618 43.339c2.214 3.337 3.268 7.49 2.663 11.792-1.313 9.34-9.949 15.848-19.289 14.536-5.038-0.708-9.252-3.547-11.859-7.477l-0.013-0.020-30.618-43.339c-2.214-3.335-3.269-7.487-2.664-11.788 0.702-4.997 3.502-9.182 7.384-11.792l0.018-0.012z" />
<glyph unicode="&#xe937;" glyph-name="hands" horiz-adv-x="1877" d="M749.995 119.402h347.776v-47.275h-347.776v47.275zM1216.384 480.661l-0.384 0.725c-7.85 11.246-20.729 18.512-35.305 18.512-6.131 0-11.961-1.285-17.237-3.601l0.276 0.108-65.067-28.117-0.853 41.344v234.368c0.014 0.432 0.021 0.939 0.021 1.449 0 27.169-22.025 49.195-49.195 49.195s-49.195-22.025-49.195-49.195c0-0.509 0.008-1.017 0.023-1.523l-0.002 0.074v-210.048h-7.253v247.936c0.014 0.432 0.021 0.939 0.021 1.449 0 27.169-22.025 49.195-49.195 49.195s-49.195-22.025-49.195-49.195c0-0.509 0.008-1.017 0.023-1.523l-0.002 0.074v-247.936h-7.253v210.048c0.014 0.432 0.021 0.939 0.021 1.449 0 27.169-22.025 49.195-49.195 49.195s-49.195-22.025-49.195-49.195c0-0.509 0.008-1.017 0.023-1.523l-0.002 0.074v-210.048h-7.253v125.739c0.001 0.14 0.002 0.306 0.002 0.472 0 27.249-21.946 49.373-49.127 49.661h-0.027c-27.227-0.264-49.197-22.397-49.197-49.662 0-0.166 0.001-0.331 0.002-0.497v0.025-252.032c0-0.037 0-0.080 0-0.123 0-51.515 14.375-99.673 39.333-140.681l-0.677 1.198 6.101-10.155c14.177-23.255 22.571-51.384 22.571-81.474 0-0.037 0-0.073 0-0.11v0.006-42.667h347.819c1.595 113.559 46.174 216.407 118.156 293.278l-0.226-0.243c5.969 7.465 9.579 17.043 9.579 27.464 0 10.054-3.36 19.323-9.018 26.746l0.079-0.108zM1029.333 199.616c0.001-0.064 0.001-0.139 0.001-0.214 0-12.768-10.29-23.132-23.030-23.252h-164.79c-12.96 0-23.467 10.506-23.467 23.467s10.506 23.467 23.467 23.467h164.779c12.751-0.119 23.043-10.484 23.043-23.252 0-0.12-0.001-0.24-0.003-0.36v0.018z" />
<glyph unicode="&#xe938;" glyph-name="rifle" horiz-adv-x="1849" d="M1250.148 381.615c-23.709 14.761-52.087 28.6-82.318 39.604-8.132 2.96-16.293 5.676-24.475 8.153l1.133-0.357-13.996-35.996c-0.179-0.411-0.373-0.897-0.553-1.392-2.052-5.637-1.988-11.529-0.215-16.805l-0.020 0.062c10.674-29.096 18.049-60.285 21.557-92.169l0.179-2.528c-1.145-28.128-5.295-60.987-12.179-93.743l-0.772-3.262c4.446-2.402 9.725-4.771 15.24-6.778 20.1-7.316 40.884-8.937 60.586-5.689l-0.674-0.087c38.225 8.22 10.79 157.527 10.79 157.527 10.881 5.032 19.829 14.229 24.252 26.38 3.309 9.091 3.614 18.543 1.423 27.269l0.042-0.19zM1137.79 431.497l-15.516 5.647s-1.962-18.78-12.556-23.688c-5.062-2.36-9.323-4.118-12.555-5.625-0.909-0.416-1.656-1.181-2.024-2.193-0.73-2.006 0.304-4.224 2.31-4.954 0.3-0.109 0.605-0.179 0.909-0.212l-0.027 0.004c4.348 0.114 8.325 0.82 12.114 2.058l-0.11-0.034c12.045 4.511 22.053 14.007 26.768 26.959 0.259 0.71 0.498 1.423 0.719 2.137l-0.032-0.1zM1043.329 469.008l-110.982 43.837c-1.161-4.074-2.684-8.765-4.384-13.435-14.905-40.951-41.219-74.451-74.046-98.218l0.697 0.534c-27.926-23.945-59.932-40.441-94.227-49.082l-0.93-0.208c-3.979-1.729-7.26-5.017-8.857-9.405-1.166-3.205-1.268-6.538-0.485-9.611l-0.015 0.066 23.709-97.383c1.127-4.91 4.595-9.108 9.612-10.934 3.408-1.24 6.972-1.183 10.15-0.080l-0.034-0.011c61.915 9.299 118.089 37.765 161.1 81.359l1.283 1.409c31.661 33.213 58.473 75.587 76.083 123.971 4.677 12.851 8.585 25.794 11.746 38.78l-0.422-1.589zM290.375 815.539l17.244 47.378 28.15-10.246 4.747-55.382 111.812-41.188 8.737 24.005 154.99-57.44 11.884 32.651 14.174-5.159-11.913-32.73 8.607-3.133 11.913 32.73 604.075-222.548c26.76-9.886 52.129-21.65 76.134-35.125l-2.729 1.433c61.735-34.184 290.514-187.651 345.672-224.672 5.889-4.145 8.478-11.74 5.938-18.718-0.318-0.874-0.704-1.704-1.15-2.486l0.045 0.085-84.329-153.072c-3.518-6.749-11.495-9.978-18.767-7.332-2.614 0.951-4.809 2.543-6.474 4.533l0.055-0.062c-65.134 78.941-145.483 162.243-232.213 239.569l-12.956 10.628c-39.673 34.697-89.314 64.59-145.108 85.097l-0.074 0.027-740.56 293.239 3.205 8.804-171.501 63.181 10.734 29.493zM1572.613 145.269c0.566-0.309 1.238-0.613 1.941-0.868 7.010-2.551 14.694 0.512 18.127 6.893l0.036 0.072 38.021 70.801c0.354 0.631 0.698 1.382 0.985 2.17 2.597 7.137-0.388 14.944-6.725 18.639l-0.084 0.045c-0.566 0.309-1.238 0.613-1.941 0.868-7.010 2.551-14.694-0.512-18.127-6.893l-0.036-0.072-38.021-70.801c-0.354-0.631-0.698-1.382-0.985-2.17-2.597-7.137 0.388-14.944 6.725-18.639l0.084-0.045z" />
<glyph unicode="&#xe939;" glyph-name="pistol" horiz-adv-x="1877" d="M1009.886 390.426l-69.507 22.584c-9.96 3.362-15.379 14.112-12.125 24.125 0.023 0.072 0.047 0.143 0.071 0.215l-0.004-0.011 8.899 27.389 75.837-24.641zM534.552 729.65l39.618 121.931c0.034 0.11 0.075 0.239 0.117 0.368 5.49 16.895 23.552 26.193 40.464 20.899l0.017-0.005 37.208-12.090 8.991 27.673c0.008 0.024 0.017 0.053 0.026 0.082 1.221 3.759 5.237 5.829 9 4.656l0.004-0.001 15.054-4.891c3.738-1.265 5.77-5.3 4.549-9.059-0.009-0.029-0.019-0.057-0.028-0.086l0.001 0.004-8.991-27.673 725.945-235.875c16.81-5.664 25.958-23.802 20.469-40.697-0.042-0.129-0.085-0.258-0.128-0.386l0.007 0.020-39.618-121.931zM1382.379 437.575l-8.741-26.902c-0.034-0.11-0.075-0.239-0.117-0.368-5.49-16.895-23.552-26.193-40.464-20.899l-0.017 0.005-13.512 4.39c-22.541 6.927-46.516-5.474-53.819-27.951-2.075-6.385-2.583-12.902-1.737-19.137l-0.027 0.281 28.398-241.466c0.496-4.317 0.069-9.037-1.434-13.665-4.238-13.043-15.823-21.645-28.684-22.714l-0.232-0.010-224.273-13.036c-3.646-0.233-7.63 0.239-11.546 1.512-13.291 4.318-21.798 16.553-21.997 29.787l0.006 0.234 20.711 358.922-323.587 105.992c-28.332 9.341-48.267 32.468-54.783 59.499l-0.085 0.407-105.173 34.173c-16.811 5.663-25.959 23.802-20.469 40.698 0.047 0.143 0.094 0.286 0.142 0.428l-0.007-0.022 8.741 26.902zM1035.449 127.945c0.474-12.691 8.594-24.114 21.152-28.194 3.738-1.215 7.541-1.672 11.242-1.456l-0.22-0.004 161.524 9.2c12.693 0.955 23.954 9.259 28.057 21.888 1.245 3.832 1.723 7.73 1.519 11.526l0.003-0.229c-0.474 12.691-8.594 24.114-21.152 28.194-3.738 1.215-7.541 1.672-11.242 1.456l0.22 0.004-161.564-9.187c-12.693-0.955-23.954-9.259-28.057-21.888-1.245-3.832-1.723-7.73-1.519-11.526l-0.003 0.229z" />
<glyph unicode="&#xe93a;" glyph-name="smg" horiz-adv-x="1877" d="M1099.539 510.925l37.963-118.249c1.447-4.731 1.423-10.033-0.427-15.117-2.988-8.211-9.995-13.797-17.991-15.347l-0.123-0.020-45.572-8.568c-4.004-0.783-8.395-0.509-12.633 1.033-9.418 3.428-15.384 12.143-15.765 21.574v0.17l0.060 154.355zM406.868 858.796l53.525-19.481 19.948 54.808 187.157-68.119-10.215-28.065 56.532-20.576 6.946 19.085 293.886-106.966 3.269 8.981 184.11-67.010c0.173-0.061 0.377-0.134 0.582-0.209 13.891-5.056 25.171-14.109 33.015-25.387l-0.155 0.211c11.864-17.304 45.406-47.402 139.385-81.607 101.757-37.037 173.318-60.858 207.97-72.062 0.267-0.085 0.578-0.191 0.888-0.304 12.489-4.546 18.928-18.354 14.382-30.843-0.002-0.006-0.004-0.012-0.007-0.018v0.001l-78.801-216.505c-0.004-0.011-0.008-0.023-0.013-0.035-4.529-12.444-18.289-18.861-30.734-14.331-3.464 1.261-6.462 3.237-8.886 5.701l0.115-0.108-298.343 295.565-242.566 88.287-169.22-270.319c-6.030-9.392-17.781-13.64-28.55-9.721-2.854 1.039-5.392 2.561-7.555 4.441l0.136-0.109-42.023 36.363c-7.464 6.452-10.509 16.89-6.997 26.54 0.666 1.829 1.53 3.528 2.559 5.081l-0.087-0.143 107.214 172.065c2.814 4.229 5.399 9.319 7.392 14.796 5.208 14.31 5.632 29.196 2.088 42.903l0.066-0.285-1.107 4.943c-7.142 27.574-27.043 50.982-55.472 61.329-0.207 0.075-0.413 0.15-0.62 0.223l0.032-0.011-120.106 42.761-14.468-11.806-148.827 54.169-6.902-18.964c-0.024-0.072-0.054-0.157-0.085-0.241-2.026-5.566-7.954-8.585-13.571-7.090l-0.042 0.012c-0.134 0.042-0.289 0.095-0.444 0.151-5.646 2.055-8.558 8.299-6.503 13.945 0.001 0.003 0.002 0.007 0.004 0.010v-0.001l7.151 19.646-9.582 3.488 15.498 42.579-53.846 19.598c0 0 0 0-0.001 0-5.691 2.071-8.625 8.364-6.554 14.054 0.015 0.042 0.031 0.084 0.047 0.126l-0.002-0.006 4.378 12.028c2.071 5.691 8.364 8.625 14.054 6.554v0zM1461.321 288.983c-4.36-11.979 1.816-25.225 13.796-29.585s25.225 1.816 29.585 13.796v0l41.254 113.344c4.36 11.979-1.816 25.225-13.796 29.585s-25.225-1.816-29.585-13.796v0z" />
<glyph unicode="&#xe93b;" glyph-name="shotgun" horiz-adv-x="1877" d="M1553.99 30.35l16.787 263.186c1.506 26.927-8.585 52.486-27.106 70.688l-0.456 0.414 23.366 23.279-19.442 19.063-23.493-23.505-23.166 22.553-150.865 114.436 12.681 34.841-367.056 133.598-6.756-18.563-619.044 225.314c-0.012 0.004-0.026 0.010-0.040 0.015-4.71 1.714-9.916-0.69-11.672-5.373l-0.002-0.004-12.827-35.242c-1.696-4.73 0.747-9.943 5.472-11.663 0.014-0.005 0.028-0.010 0.042-0.015l-0.002 0.001 119.118-43.355-3.677-10.104-119.118 43.355c-0.012 0.004-0.026 0.010-0.040 0.015-4.725 1.72-9.947-0.704-11.687-5.415l-0.001-0.002-26.938-74.013c-1.667-4.721 0.775-9.908 5.486-11.623 0.014-0.005 0.028-0.010 0.043-0.015l-0.002 0.001 42.86-15.6-9.894-27.183c-3.371-9.472 1.526-19.898 10.983-23.34 0.042-0.015 0.085-0.031 0.127-0.046l-0.007 0.002 24.978-9.091c0.036-0.013 0.078-0.029 0.121-0.044 9.457-3.442 19.91 1.397 23.414 10.814l0.002 0.006 9.879 27.143 661.022-240.592c0.081-0.029 0.177-0.064 0.274-0.099 45.982-16.736 84.861-44.348 114.79-78.874l-1.084 1.164c43.775-50.756 102.825-92.761 172.692-118.203l2.289-0.833c0.138-0.050 0.302-0.109 0.465-0.168 46.19-16.812 72.008-64.819 62.321-111.57l-0.121-0.518-17.619-80.719c-1.847-8.875 2.999-17.892 11.672-21.048 0.031-0.011 0.062-0.023 0.093-0.034l-0.005 0.002 106.689-38.832c0.052-0.019 0.113-0.042 0.174-0.064 9.455-3.441 19.91 1.434 23.351 10.889 0.608 1.671 0.957 3.373 1.066 5.062l-0.014-0.132zM1317.786 310.518c-23.292 13.385-43.030 27.659-61.036 43.568l2.050-1.666c-9.443 8.355-13.272 21.686-8.817 34.034l0.002 0.004c3.507 9.423 13.959 14.262 23.416 10.82 0.042-0.015 0.085-0.031 0.127-0.047l-0.007 0.002 79.506-28.938c-0.199-2.709-0.826-5.674-1.887-8.588-2.479-6.812-6.956-12.319-12.528-16.1l0.096 0.069c-5.983-2.59-11.116-4.717-14.827-6.182-1.472-0.265-2.748-1.269-3.288-2.753-0.809-2.222 0.337-4.679 2.559-5.487 0.738-0.269 1.502-0.322 2.222-0.191l-0.023-0.003c5.211 0.026 9.978 0.758 14.538 2.121l-0.161-0.044c14.092 4.573 25.897 15.259 31.307 30.121 0.055 0.15 0.109 0.3 0.162 0.451l-0.008-0.023 6.255-2.276c0.036-0.013 0.078-0.028 0.121-0.044 9.457-3.442 14.354-13.868 10.985-23.334l-0.002-0.006c-9.375-25.368-37.487-38.413-62.918-29.156-2.834 1.031-5.515 2.296-8.030 3.765l0.266-0.145zM1514.709 44.556l-71.006 25.844c-9.079 3.304-13.76 13.343-10.455 22.421s13.343 13.76 22.421 10.455v0l70.925-25.815c9.079-3.304 13.76-13.343 10.455-22.421s-13.343-13.76-22.421-10.455v0z" />
<glyph unicode="&#xe93c;" glyph-name="sticker" horiz-adv-x="1877" d="M902.528 193.941l45.867-84.437c2.374-4.231 6.832-7.043 11.947-7.043s9.572 2.812 11.911 6.975l0.035 0.069 178.304 332.16c0.982 1.789 1.559 3.921 1.559 6.187s-0.577 4.397-1.593 6.255l0.034-0.068-178.304 332.416c-2.374 4.231-6.832 7.043-11.947 7.043s-9.572-2.812-11.911-6.975l-0.035-0.069-45.909-84.352c-1.011-1.789-1.606-3.929-1.606-6.208s0.596-4.419 1.639-6.272l-0.033 0.064 117.717-219.264c3.68-6.457 5.849-14.187 5.849-22.425 0-8.39-2.25-16.254-6.181-23.022l0.118 0.22-117.504-218.837c-0.992-1.801-1.576-3.947-1.576-6.229s0.584-4.429 1.61-6.297l-0.034 0.068zM1168.939 819.733l193.28-360.192c1.932-3.314 3.073-7.294 3.073-11.541s-1.141-8.228-3.132-11.652l0.060 0.111-193.28-360.192c-4.3-7.47-12.239-12.418-21.333-12.418s-17.033 4.948-21.27 12.3l-0.063 0.119-66.475 123.733 126.891 236.373c1.905 3.321 3.028 7.3 3.028 11.541s-1.123 8.221-3.089 11.656l0.061-0.115-126.72 236.459 66.517 123.819c4.3 7.47 12.239 12.418 21.333 12.418s17.033-4.948 21.27-12.3l0.063-0.119zM986.837 459.541l-193.28 360.192c-4.284 7.494-12.228 12.462-21.333 12.462s-17.050-4.969-21.27-12.342l-0.063-0.12-193.195-360.192c-1.916-3.325-3.046-7.312-3.046-11.563s1.13-8.238 3.107-11.677l-0.060 0.114 128.256-238.933c19.84 8.277 39.339 36.48 51.499 100.437 3.345 18.832 5.258 40.513 5.258 62.64 0 42.617-7.095 83.577-20.167 121.764l0.787-2.644c-16.429 32.136-26.057 70.099-26.057 110.31 0 10.294 0.631 20.441 1.856 30.404l-0.12-1.194c-0.083 2.551-0.13 5.549-0.13 8.559 0 57.589 17.316 111.134 47.026 155.712l-0.645-1.029c-29.867-110.592-17.792-190.464 3.456-225.195s76.8 0.683 115.456-78.037 1.28-263.509 1.28-263.509 9.131 144.725-19.541 191.019c-49.323 79.701-63.36-8.107-65.109-26.624 0.046-2.275 0.073-4.957 0.073-7.645 0-55.304-11.194-107.994-31.439-155.928l0.988 2.634c-16.043-37.931-36.267-45.44-53.248-42.667l53.717-100.181c4.284-7.494 12.228-12.462 21.333-12.462s17.050 4.969 21.27 12.342l0.063 0.12 193.28 360.149c1.916 3.325 3.046 7.312 3.046 11.563s-1.13 8.238-3.107 11.677l0.060-0.114z" />
<glyph unicode="&#xe93d;" glyph-name="module" d="M965.086 857.621h-911.974c-29.333 0-53.111-23.779-53.111-53.111v0-690.654c0.039-29.317 23.794-53.073 53.108-53.111h911.978c29.317 0.039 53.073 23.794 53.111 53.108v690.658c0 29.333-23.779 53.111-53.111 53.111v0zM888.764 236.394h-40.346v-40.346c-1.336-12.125-11.523-21.472-23.893-21.472s-22.557 9.347-23.884 21.364l-0.010 0.108v40.346h-40.346c-12.125 1.336-21.472 11.523-21.472 23.893s9.347 22.557 21.364 23.884l0.108 0.010h40.346v40.346c1.336 12.125 11.523 21.472 23.893 21.472s22.557-9.347 23.884-21.364l0.010-0.108v-40.346h40.346c12.125-1.336 21.472-11.523 21.472-23.893s-9.347-22.557-21.364-23.884l-0.108-0.010z" />
<glyph unicode="&#xe93e;" glyph-name="type_customplayer" horiz-adv-x="1877" d="M933.717 603.029c76.076-0.399 147.93-18.067 211.971-49.278l-2.905 1.278c0 15.061-11.52 28.672-13.269 43.093-15.915 131.925-65.109 233.899-195.797 233.899s-179.968-101.973-196.011-233.941c-1.749-14.421-13.269-28.032-13.269-43.093 61.136 29.933 132.991 47.601 208.932 47.999l0.135 0.001zM693.12 425.877l-20.181 9.899-39.424 132.267 19.669 18.176-25.6 2.347-11.307 37.675-18.944-5.845 91.221-306.475 8.533 2.603 10.581 3.285 26.283 8.107-20.907 70.187c-2.861 11.744-9.992 21.476-19.618 27.668l-0.18 0.108zM752.811 365.12c132.782-126.123 303.227-213.772 492.77-244.405l5.364-0.715v94.080c0.001 0.13 0.001 0.284 0.001 0.438 0 41.618-21.574 78.197-54.148 99.164l-0.466 0.281-107.52 67.285-15.36 9.771-49.493 31.104c-2.3 1.468-5.104 2.339-8.111 2.339-2.521 0-4.899-0.612-6.993-1.696l0.085 0.040c-21.899-11.372-47.813-18.041-75.285-18.041s-53.386 6.669-76.212 18.477l0.927-0.436c-2.009 1.044-4.387 1.656-6.908 1.656-3.007 0-5.811-0.872-8.173-2.376l0.062 0.037-48.896-30.72-0.469-0.171-13.995-8.917zM735.189 354.112l-2.56-1.579zM724.139 347.2l-52.992-33.237c-33.134-21.183-54.785-57.781-54.785-99.436 0-0.157 0-0.314 0.001-0.471v0.024-122.837h634.581c-205.495 33.617-385.426 124.949-527.456 256.597l0.651-0.597z" />
<glyph unicode="&#xe93f;" glyph-name="machinegun" horiz-adv-x="1757" d="M1702.509 330.824l-148.108 53.014c-0.342 0.161-0.747 0.329-1.162 0.48-7.125 2.593-14.948-0.621-18.285-7.224l-0.030-0.064-9.749-26.201-142.686 101.657c-28.584 20.717-63.314 39.287-101.172 53.067-0.857 0.312-1.714 0.621-2.572 0.927l-672.896 240.92-10.514-28.303-111.45 39.885 10.014 56.704c0.728 9.502-4.796 18.557-14.038 21.92-0.541 0.197-1.085 0.371-1.63 0.522l0.072-0.021-25.292-67.973-216.831 77.645c0.626 2.42-0.669 4.946-3.047 5.811-0.166 0.060-0.332 0.111-0.5 0.152l0.021-0.006-87.317 31.228c-0.139 0.068-0.303 0.138-0.472 0.2-2.422 0.881-5.081-0.212-6.213-2.459l-0.010-0.022-6.187-17c-0.626-2.42 0.669-4.946 3.047-5.811 0.166-0.060 0.332-0.111 0.5-0.152l-0.021 0.006 87.303-31.266c0.097-0.044 0.211-0.090 0.328-0.133 2.417-0.88 5.071 0.208 6.206 2.446l0.010 0.022 0.273 0.751 214.317-76.73-5.464-15.011-36.77 13.171-11.029-29.602 99.152-35.493-21.154-57.069 3.002-1.093-0.15-0.413-125.329-243.803 22.517-8.195 77.896 151.547-33.494-136.046 22.517-8.195 58.206 236.401 0.26 0.713 3.49-1.27 21.243 57.079 53.122-19.037 16.7-6.078 56.401-20.188-10.688-28.664c-1.805-7.124 2.013-14.535 9.009-17.082 0.472-0.172 0.948-0.317 1.424-0.437l-0.059 0.016 201.793-72.257c0.342-0.161 0.747-0.329 1.162-0.48 7.125-2.593 14.948 0.621 18.285 7.224l0.030 0.064 10.688 28.664 11.446-4.166-57.879-155.517c-1.805-7.124 2.013-14.535 9.009-17.082 0.472-0.172 0.948-0.317 1.424-0.437l-0.059 0.016 88.016-31.525c0.342-0.161 0.747-0.329 1.162-0.48 7.125-2.593 14.948 0.621 18.285 7.224l0.030 0.064 57.879 155.517 11.446-4.166-7.786-21.391c-1.805-7.124 2.013-14.535 9.009-17.082 0.472-0.172 0.948-0.317 1.424-0.437l-0.059 0.016 82.261-29.473-3.372-142.377c0.547-6.23 4.538-11.786 10.694-14.027 1.583-0.576 3.197-0.892 4.795-0.97l-0.119 0.011 68.974-7.595c6.181-1.542 12.599 1.777 14.808 7.844 0.872 2.397 0.966 4.887 0.41 7.194l0.011-0.053-38.653 129.666 35.426-12.894c0.342-0.161 0.747-0.329 1.162-0.48 7.125-2.593 14.948 0.621 18.285 7.224l0.030 0.064 1.366 3.753 287.459-113.976-9.097-24.993c-1.483-6.972 2.317-14.073 9.134-16.554 0.4-0.146 0.803-0.273 1.207-0.381l-0.052 0.015 148.128-53.192c0.342-0.161 0.747-0.329 1.162-0.48 7.125-2.593 14.948 0.621 18.285 7.224l0.030 0.064 40.139 107.83c1.805 7.124-2.013 14.535-9.009 17.082-0.472 0.172-0.948 0.317-1.424 0.437l0.059-0.016zM1653.37 240.421c-3.257-6.415-10.794-9.503-17.659-7.005-0.363 0.132-0.717 0.277-1.062 0.435l0.046-0.020c-0.394 0.099-0.842 0.237-1.287 0.399-6.738 2.452-10.418 9.587-8.703 16.392l0.016 0.057 22.81 61.269c3.257 6.415 10.794 9.503 17.659 7.005 0.363-0.132 0.717-0.277 1.062-0.435l-0.046 0.020c0.394-0.099 0.842-0.237 1.287-0.399 6.738-2.452 10.418-9.587 8.703-16.392l-0.016-0.057z" />
<glyph unicode="&#xe940;" glyph-name="s" d="M439.404 127.078l57.937-106.658c2.999-5.345 8.63-8.897 15.091-8.897s12.091 3.552 15.046 8.81l0.045 0.087 225.226 419.571c1.24 2.26 1.969 4.952 1.969 7.815s-0.729 5.555-2.012 7.901l0.043-0.086-225.226 419.894c-2.999 5.345-8.63 8.897-15.091 8.897s-12.091-3.552-15.046-8.81l-0.045-0.087-57.991-106.55c-1.277-2.26-2.029-4.963-2.029-7.842s0.752-5.581 2.071-7.923l-0.042 0.081 148.696-276.965c4.648-8.156 7.389-17.921 7.389-28.326 0-10.598-2.843-20.531-7.807-29.080l0.149 0.278-148.426-276.426c-1.253-2.275-1.991-4.985-1.991-7.869s0.737-5.594 2.034-7.954l-0.043 0.086zM775.923 917.552l244.143-454.979c2.441-4.186 3.881-9.214 3.881-14.579s-1.441-10.393-3.957-14.719l0.075 0.14-244.143-454.979c-5.432-9.436-15.46-15.686-26.947-15.686s-21.515 6.251-26.868 15.536l-0.080 0.15-83.968 156.295 160.283 298.577c2.406 4.194 3.825 9.221 3.825 14.579s-1.419 10.384-3.901 14.724l0.077-0.145-160.067 298.685 84.022 156.403c5.432 9.436 15.46 15.686 26.947 15.686s21.515-6.251 26.868-15.536l0.080-0.15zM545.9 462.573l-244.143 454.979c-5.411 9.466-15.446 15.742-26.947 15.742s-21.536-6.276-26.868-15.59l-0.080-0.151-244.035-454.979c-2.42-4.2-3.848-9.236-3.848-14.605s1.428-10.406 3.924-14.75l-0.076 0.144 162.008-301.811c25.061 10.456 49.691 46.080 65.051 126.868 4.226 23.788 6.642 51.174 6.642 79.125 0 53.832-8.962 105.571-25.474 153.807l0.994-3.34c-20.753 40.593-32.914 88.546-32.914 139.339 0 13.003 0.797 25.82 2.345 38.405l-0.151-1.508c-0.105 3.222-0.165 7.010-0.165 10.811 0 72.744 21.873 140.38 59.401 196.689l-0.815-1.299c-37.726-139.695-22.474-240.586 4.365-284.456s97.011 0.862 145.839-98.573 1.617-332.854 1.617-332.854 11.533 182.811-24.684 241.287c-62.302 100.675-80.034-10.24-82.243-33.63 0.059-2.874 0.092-6.262 0.092-9.657 0-69.858-14.14-136.414-39.713-196.961l1.248 3.327c-20.264-47.912-45.811-57.398-67.261-53.895l67.853-126.545c5.411-9.466 15.446-15.742 26.947-15.742s21.536 6.276 26.868 15.59l0.080 0.151 244.143 454.925c2.42 4.2 3.848 9.236 3.848 14.605s-1.428 10.406-3.924 14.75l0.076-0.144z" />
<glyph unicode="&#xe941;" glyph-name="keytag" d="M78.704 678.775c-0.177-1.412-0.369-3.078-0.545-4.749-15.154-143.606 88.651-272.347 232.041-288.119l0.060-0.007c4.252-0.717 9.238-1.397 14.276-1.928 23.911-2.523 47.385-1.551 69.914 2.504l-1.784-0.25c100.181-105.48 365.394-384.214 385.139-409.732 7.13-9.728 18.134-16.502 31.022-17.862 0.047-0.005 0.094-0.010 0.142-0.015l-0.007 0.001c18.31-0.675 35.289 5.373 48.565 16.029l-0.005-0.004c16.523 12.786 79.901 68.198 70.183 80.472-29.138 36.996-37.089 44.924-49.171 59.791-18.096 22.825-61.881 4.304-77.867 13.256-11.86 4.983-19.765 16.492-19.784 29.482l0.003 0.141c3.246 19.082 7.443 36.534 12.695 53.476l-0.7-2.542c1.491 16.695-4.659 32.322-15.594 43.398l-0.088 0.086c-6.664 11.567-18.053 20.027-31.804 22.505l-0.149 0.025c-19.535 2.53-48.482-23.063-66.941 0.21s18.948 50.2 18.707 72.898c-4.711 24.645-19.853 45.375-40.994 57.198l-0.514 0.261c-12.969 4.239-50.201-20.48-69.095-14.092-10.454 6.050-18.027 15.729-21.287 27.072l-0.077 0.316c-1.144 10.256 20.754 52.88 19.668 63.13-4.559 15.245-10.859 28.645-18.872 40.877l0.189-0.298c16.018 27.554 27.134 60.522 30.883 96.050 0.21 1.995 0.397 3.986 0.559 5.974l-0.026-0.295c0.191 1.513 0.398 3.299 0.587 5.091 15.249 144.5-87.974 274.197-231.431 292.391l-0.281 0.034c-144.103 12.119-271.866-92.981-287.086-237.208-0.206-1.955-0.391-3.908-0.554-5.857l0.026 0.291zM363.951 710.364c-4.052-38.399-38.466-66.243-76.866-62.191s-66.243 38.466-62.191 76.866c4.052 38.399 38.466 66.243 76.866 62.191v0c38.399-4.052 66.243-38.466 62.191-76.866v0z" />
<glyph unicode="&#xe942;" glyph-name="capsule" d="M512 102.99c13.175-0.703 28.599-1.103 44.117-1.103 108.306 0 212.055 19.509 307.926 55.204l-6.101-1.99c-52.864-129.866-178.109-219.747-324.346-219.747-7.598 0-15.138 0.243-22.615 0.72l1.021-0.052c-6.032-0.367-13.083-0.576-20.183-0.576-147.368 0-273.691 90.102-326.887 218.222l-0.862 2.344c90.118-34.302 194.329-54.165 303.179-54.165 15.742 0 31.388 0.415 46.925 1.236l-2.172-0.091zM125.44 447.68c-4.591 6.427-8.331 13.868-10.829 21.857l-0.15 0.557 5.348 197.973c-0.002 0.341-0.003 0.745-0.003 1.149 0 50.055 14.858 96.64 40.404 135.584l-0.579-0.94c46.137 70.144 141.369 156.16 332.004 156.16h40.96c190.578 0 285.924-86.016 331.89-156.16 24.967-38.005 39.825-84.59 39.825-134.645 0-0.404-0.001-0.808-0.003-1.211v0.062-191.602c-5.461-11.313-12.132-21.040-20.042-29.606l0.074 0.081c-39.822-43.861-136.533-96.028-370.574-96.028-265.614 0.398-357.774 52.736-388.324 96.768zM910.222 428.849v-197.461c-20.992-29.127-101.547-96.711-398.222-96.711s-377.173 67.413-398.222 96.711v180.964c59.79-61.668 194.048-92.843 399.872-92.843 245.874 0 349.924 57.856 393.899 106.382l2.674 2.958z" />
<glyph unicode="&#xe943;" glyph-name="ticket" horiz-adv-x="993" d="M725.703-41.809c-4.111 4.408-3.87 11.314 0.539 15.425s11.314 3.87 15.425-0.539v0l4.001 3.731c-4.111 4.408-3.87 11.314 0.539 15.425s11.314 3.87 15.425-0.539v0l3.922 3.658c-4.111 4.408-3.87 11.314 0.539 15.425s11.314 3.87 15.425-0.539v0l3.922 3.658c-4.111 4.408-3.87 11.314 0.539 15.425s11.314 3.87 15.425-0.539v0l3.922 3.658c-4.111 4.408-3.87 11.314 0.539 15.425s11.314 3.87 15.425-0.539v0l3.922 3.658c-4.111 4.408-3.87 11.314 0.539 15.425s11.314 3.87 15.425-0.539v0l3.922 3.658c-4.111 4.408-3.87 11.314 0.539 15.425s11.314 3.87 15.425-0.539v0l3.922 3.658c-4.111 4.408-3.87 11.314 0.539 15.425s11.314 3.87 15.425-0.539v0l3.922 3.658c-4.111 4.408-3.87 11.314 0.539 15.425s11.314 3.87 15.425-0.539v0l3.922 3.658c-4.111 4.408-3.87 11.314 0.539 15.425s11.314 3.87 15.425-0.539v0l5.373 5.011c-4.111 4.408-3.87 11.314 0.539 15.425s11.314 3.87 15.425-0.539v0l3.922 3.658c-4.111 4.408-3.87 11.314 0.539 15.425s11.314 3.87 15.425-0.539v0l8.511 7.937c-8.105 11.26-7.782 26.399 0.582 37.175l0.114 0.139c1.623 2.066 1.544 5.028-0.282 6.987-0.015 0.016-0.029 0.031-0.044 0.046l0.002-0.002-143.85 154.26c-0.012 0.013-0.027 0.029-0.041 0.045-1.826 1.959-4.776 2.243-6.926 0.787l-0.025-0.018c-11.479-7.696-26.604-6.962-37.154 1.807l-0.117 0.102-8.197-7.644c4.111-4.408 3.87-11.314-0.539-15.425s-11.314-3.87-15.425 0.539v0l-3.922-3.658c4.111-4.408 3.87-11.314-0.539-15.425s-11.314-3.87-15.425 0.539v0l-3.922-3.658c4.111-4.408 3.87-11.314-0.539-15.425s-11.314-3.87-15.425 0.539v0l-3.922-3.658c4.111-4.408 3.87-11.314-0.539-15.425s-11.314-3.87-15.425 0.539v0l-3.922-3.658c4.111-4.408 3.87-11.314-0.539-15.425s-11.314-3.87-15.425 0.539v0l-3.922-3.658c4.111-4.408 3.87-11.314-0.539-15.425s-11.314-3.87-15.425 0.539v0l-3.922-3.658c4.111-4.408 3.87-11.314-0.539-15.425s-11.314-3.87-15.425 0.539v0l-3.922-3.658c4.111-4.408 3.87-11.314-0.539-15.425s-11.314-3.87-15.425 0.539v0l-3.922-3.658c4.111-4.408 3.87-11.314-0.539-15.425s-11.314-3.87-15.425 0.539v0l-3.922-3.658c4.111-4.408 3.87-11.314-0.539-15.425s-11.314-3.87-15.425 0.539v0l-3.922-3.658c4.111-4.408 3.87-11.314-0.539-15.425s-11.314-3.87-15.425 0.539v0l-3.922-3.658c4.111-4.408 3.87-11.314-0.539-15.425s-11.314-3.87-15.425 0.539v0l-1.373-1.28c8.105-11.26 7.782-26.399-0.582-37.175l-0.114-0.139c-1.623-2.066-1.544-5.028 0.282-6.987 0.015-0.016 0.029-0.031 0.044-0.046l-0.002 0.002 143.85-154.26c0.012-0.013 0.027-0.029 0.041-0.045 1.826-1.959 4.776-2.243 6.926-0.787l0.025 0.018c11.479 7.696 26.604 6.962 37.154-1.807l0.117-0.102-0.471-0.439zM775.206 379.358v0l8.197 7.644c-8.105 11.26-7.782 26.399 0.582 37.175l0.114 0.139c1.623 2.066 1.544 5.028-0.282 6.987-0.015 0.016-0.029 0.031-0.044 0.046l0.002-0.002-471.381 505.494c-0.012 0.013-0.027 0.029-0.041 0.045-1.826 1.959-4.776 2.243-6.926 0.787l-0.025-0.018c-11.329-7.635-26.228-7.037-36.776 1.407l-0.129 0.109-8.197-7.644c4.040-4.332 3.803-11.119-0.529-15.159v0c-4.332-4.040-11.119-3.803-15.159 0.529v0l-3.922-3.658c4.040-4.332 3.803-11.119-0.529-15.159v0c-4.332-4.040-11.119-3.803-15.159 0.529v0l-3.922-3.658c0.012-0.013 0.026-0.028 0.041-0.043 4.040-4.332 3.803-11.119-0.529-15.159-0.29-0.271-0.591-0.522-0.902-0.754l0.038 0.029c-4.332-4.040-11.119-3.803-15.159 0.529v0l-3.922-3.658c4.040-4.332 3.803-11.119-0.529-15.159v0c-4.332-4.040-11.119-3.803-15.159 0.529v0l-3.922-3.658c4.040-4.332 3.803-11.119-0.529-15.159v0c-4.332-4.040-11.119-3.803-15.159 0.529v0l-3.922-3.658c4.040-4.332 3.803-11.119-0.529-15.159v0c-4.332-4.040-11.119-3.803-15.159 0.529v0l-3.922-3.658c4.040-4.332 3.803-11.119-0.529-15.159v0c-4.332-4.040-11.119-3.803-15.159 0.529v0l-3.922-3.658c4.040-4.332 3.803-11.119-0.529-15.159v0c-4.332-4.040-11.119-3.803-15.159 0.529v0l-3.922-3.658c4.040-4.332 3.803-11.119-0.529-15.159v0c-4.332-4.040-11.119-3.803-15.159 0.529v0l-3.922-3.658c4.040-4.332 3.803-11.119-0.529-15.159v0c-4.332-4.040-11.119-3.803-15.159 0.529v0l-3.922-3.658c4.040-4.332 3.803-11.119-0.529-15.159v0c-4.332-4.040-11.119-3.803-15.159 0.529v0l-3.922-3.658c4.040-4.332 3.803-11.119-0.529-15.159v0c-4.332-4.040-11.119-3.803-15.159 0.529v0l-1.373-1.28c8.105-11.26 7.782-26.399-0.582-37.175l-0.114-0.139c-1.623-2.066-1.544-5.028 0.282-6.987 0.015-0.016 0.029-0.031 0.044-0.046l-0.002 0.002 471.82-505.965c0.012-0.013 0.027-0.029 0.041-0.045 1.826-1.959 4.776-2.243 6.926-0.787l0.025 0.018c11.479 7.696 26.604 6.962 37.154-1.807l0.117-0.102-2.942-2.743c-4.111 4.408-3.87 11.314 0.539 15.425s11.314 3.87 15.425-0.539v0l4.040 3.767c-4.111 4.408-3.87 11.314 0.539 15.425s11.314 3.87 15.425-0.539v0l3.922 3.658c-4.111 4.408-3.87 11.314 0.539 15.425s11.314 3.87 15.425-0.539v0l3.922 3.658c-4.111 4.408-3.87 11.314 0.539 15.425s11.314 3.87 15.425-0.539v0l3.922 3.658c-4.111 4.408-3.87 11.314 0.539 15.425s11.314 3.87 15.425-0.539v0l3.922 3.658c-4.111 4.408-3.87 11.314 0.539 15.425s11.314 3.87 15.425-0.539v0l3.922 3.658c-4.111 4.408-3.87 11.314 0.539 15.425s11.314 3.87 15.425-0.539v0l3.922 3.658c-4.111 4.408-3.87 11.314 0.539 15.425s11.314 3.87 15.425-0.539v0l3.922 3.658c-4.111 4.408-3.87 11.314 0.539 15.425s11.314 3.87 15.425-0.539v0l3.922 3.658c-4.111 4.408-3.87 11.314 0.539 15.425s11.314 3.87 15.425-0.539v0l5.373 5.011c-4.111 4.408-3.87 11.314 0.539 15.425s11.314 3.87 15.425-0.539v0l3.922 3.658c-4.111 4.408-3.87 11.314 0.539 15.425s11.314 3.87 15.425-0.539v0zM312.302 664.704c7.148 6.666 18.347 6.275 25.013-0.873v0l176.146-188.893c6.666-7.148 6.275-18.347-0.873-25.013s-18.347-6.275-25.013 0.873v0l-176.073 188.815c-0.022 0.023-0.048 0.051-0.073 0.078-6.666 7.148-6.275 18.347 0.873 25.013 0 0 0 0 0 0v0zM477.092 359.261l-257.599 276.241c-6.666 7.148-6.275 18.347 0.873 25.013s18.347 6.275 25.013-0.873v0l257.599-276.241c6.666-7.148 6.275-18.347-0.873-25.013s-18.347-6.275-25.013 0.873v0z" />
<glyph unicode="&#xe944;" glyph-name="coin" d="M512 915.363c-258.032-0.097-467.172-209.296-467.172-467.342 0-258.106 209.236-467.342 467.342-467.342s467.342 209.236 467.342 467.342v0c-0.291 257.989-209.354 467.051-467.315 467.342h-0.027zM512.171 10.432c-241.674 0-437.589 195.915-437.589 437.589s195.915 437.589 437.589 437.589c241.674 0 437.589-195.915 437.589-437.589v0c-0.259-241.57-196.020-437.33-437.564-437.589h-0.025zM512 873.948c-235.233 0-425.927-190.694-425.927-425.927s190.694-425.927 425.927-425.927c235.233 0 425.927 190.694 425.927 425.927v0c-0.42 235.064-190.863 425.507-425.886 425.927h-0.041zM512 189.745c-142.642 0-258.276 115.634-258.276 258.276s115.634 258.276 258.276 258.276c142.642 0 258.276-115.634 258.276-258.276v0c-0.162-142.577-115.699-258.114-258.26-258.276h-0.016zM512.057 659.648c-116.861-0.065-211.57-94.814-211.57-211.684 0-116.91 94.774-211.684 211.684-211.684s211.684 94.774 211.684 211.684v0c-0.129 116.858-94.826 211.554-211.671 211.684h-0.012zM512 960.078c-282.77 0-512-229.23-512-512s229.23-512 512-512c282.77 0 512 229.23 512 512v0c0 282.77-229.23 512-512 512v0zM512-30.927c-264.547 0-479.004 214.458-479.004 479.004s214.458 479.004 479.004 479.004c264.547 0 479.004-214.458 479.004-479.004v0c-0.259-264.454-214.554-478.77-478.976-479.061h-0.028z" />
<glyph unicode="&#xe945;" glyph-name="musicKit" d="M307.257 897.386s-55.012-3.413-70.201-22.756c-20.211-26.558-33.399-59.461-36.254-95.274l-0.041-0.64c-4.665-45.511-22.756-45.511-40.562-45.511s-17.92 32.597-17.92 63.431v89.088s-4.665 61.099 82.489 69.632c79.132 7.794 149.163 7.964 149.163-17.067 0-23.836-17.408-31.46-66.674-40.903zM716.743 897.386s55.012-3.413 70.201-22.756c20.208-26.56 33.396-59.461 36.254-95.274l0.041-0.641c4.665-45.511 22.756-45.511 40.562-45.511s17.92 33.109 17.92 63.943v88.576s4.665 61.099-82.489 69.632c-79.132 7.794-149.163 7.964-149.163-17.067 0-23.95 17.465-31.403 66.674-41.131zM307.257-1.117s-55.012 3.413-70.201 22.756c-20.208 26.56-33.396 59.461-36.254 95.274l-0.041 0.641c-4.665 45.511-22.756 45.511-40.562 45.511s-17.92-32.882-17.92-63.716v-89.088s-4.665-61.099 82.489-69.632c79.132-7.794 149.163-8.021 149.163 17.067 0 24.007-17.465 31.403-66.674 41.131zM716.743-1.117s55.012 3.413 70.201 22.756c20.208 26.56 33.396 59.461 36.254 95.274l0.041 0.641c4.665 45.511 22.756 45.511 40.562 45.511s17.92-33.109 17.92-63.943v-89.088s4.665-61.099-82.489-69.632c-79.132-7.794-149.163-8.021-149.163 17.067 0 24.007 17.465 31.403 66.674 41.131zM703.147 816.832h-389.006c-1.1 0-1.991-0.891-1.991-1.991v0-452.722c0-1.1 0.891-1.991 1.991-1.991v0h388.949c1.1 0 1.991 0.891 1.991 1.991v0 452.722c0 1.1-0.891 1.991-1.991 1.991v0zM780.516 938.289h-543.687c-0.272 0.003-0.594 0.005-0.916 0.005-42.454 0-76.934-34.144-77.476-76.47l-0.001-0.051v-835.812c0.543-42.377 35.022-76.521 77.477-76.521 0.322 0 0.644 0.002 0.965 0.006h543.638c0.272-0.003 0.594-0.005 0.916-0.005 42.454 0 76.934 34.144 77.476 76.47l0.001 0.051v835.812c-0.543 42.377-35.022 76.521-77.477 76.521-0.322 0-0.644-0.002-0.965-0.006h0.049zM605.525 90.645c-0.288-22.841-18.871-41.247-41.753-41.247-0.161 0-0.322 0.001-0.483 0.003h-109.202c-0.136-0.002-0.297-0.003-0.458-0.003-22.882 0-41.466 18.406-41.753 41.22v106.864c0.288 22.841 18.871 41.247 41.753 41.247 0.161 0 0.322-0.001 0.483-0.003h109.202c0.136 0.002 0.297 0.003 0.458 0.003 22.882 0 41.466-18.406 41.753-41.22v-0.027zM736.768 361.891c-0.255-18.153-15.031-32.77-33.22-32.77-0.141 0-0.282 0.001-0.423 0.003h-388.928c-0.153-0.003-0.334-0.004-0.515-0.004-18.19 0-32.966 14.618-33.22 32.748v453.030c0.255 18.153 15.031 32.77 33.22 32.77 0.141 0 0.282-0.001 0.423-0.003h389.042c0.119 0.002 0.26 0.002 0.401 0.002 18.189 0 32.965-14.618 33.22-32.746v-0.024z" />
<glyph unicode="&#xe946;" glyph-name="patch" d="M622.421 732.465l-207.474 227.556h482.759c6.942-0.084 12.537-5.731 12.537-12.685 0-4.090-1.936-7.728-4.941-10.048l-0.029-0.022-269.255-206.165c-1.665-1.265-3.773-2.027-6.059-2.027-2.995 0-5.684 1.307-7.528 3.382l-0.009 0.010zM505.23 595.249c-0.998 0.013-2.176 0.021-3.356 0.021-148.517 0-268.914-120.397-268.914-268.914s120.397-268.914 268.914-268.914c148.517 0 268.914 120.397 268.914 268.914 0 0.013 0 0.025 0 0.038v-0.002c-1.055 146.907-118.928 265.936-265.284 268.853l-0.274 0.004zM505.23 241.059c-0.321-0.004-0.701-0.007-1.081-0.007-47.128 0-85.333 38.205-85.333 85.333s38.205 85.333 85.333 85.333c47.126 0 85.329-38.201 85.333-85.326v0c0-0.002 0-0.004 0-0.007 0-46.748-37.591-84.717-84.195-85.326l-0.058-0.001zM505.060 716.707c-213.56-2.66-385.659-176.404-385.659-390.343s172.1-387.683 385.409-390.341l0.25-0.002c213.56 2.66 385.659 176.404 385.659 390.343s-172.1 387.683-385.409 390.341l-0.25 0.002zM724.878 103.843c-55.663-57.532-133.57-93.247-219.819-93.247s-164.156 35.715-219.738 93.163l-0.081 0.084c-56.906 56.978-92.098 135.654-92.098 222.549s35.192 165.571 92.102 222.553l-0.003-0.003c55.663 57.532 133.57 93.247 219.819 93.247s164.156-35.715 219.738-93.163l0.081-0.084c56.906-56.978 92.098-135.654 92.098-222.549s-35.192-165.571-92.102-222.553l0.003 0.003zM588.971 733.376c-27.291 7.64-58.63 12.032-90.995 12.032-63.241 0-122.566-16.768-173.77-46.101l1.711 0.903c-0.154-0.124-0.353-0.2-0.569-0.2s-0.415 0.075-0.571 0.201l0.002-0.001-207.815 238.763c-1.955 2.221-3.148 5.153-3.148 8.364 0 6.933 5.562 12.567 12.467 12.684h257.888l205.767-225.166c0.151-0.162 0.244-0.38 0.244-0.62 0-0.503-0.408-0.91-0.91-0.91-0.108 0-0.211 0.019-0.307 0.053l0.006-0.002z" />
<glyph unicode="&#xe947;" glyph-name="logo-steam" horiz-adv-x="992" d="M992 448.021c0-274-222.4-496-496.8-496-227.6 0-419.2 152.6-478 360.8l190.4-78.6c12.8-64.2 69.8-112.8 137.8-112.8 78.4 0 143.8 64.8 140.4 147l169 120.4c104.2-2.6 191.6 81.8 191.6 187 0 103.2-84 187-187.4 187s-187.4-84-187.4-187v-2.4l-118.4-171.4c-31 1.8-61.4-6.8-87-24.2l-266.2 110c20.4 255.4 234.2 456.2 495.2 456.2 274.4 0 496.8-222 496.8-496zM311.4 191.421l-61 25.2c11.393-23.29 30.397-41.387 53.711-51.338l0.689-0.262c53.8-22.4 115.6 3.2 138 56.8 10.8 26 11 54.6 0.2 80.6s-31 46.4-57 57.2c-25.8 10.8-53.4 10.4-77.8 1.2l63-26c39.6-16.4 58.4-61.8 41.8-101.4-16.6-39.8-62-58.4-101.6-42zM659 451.221c-68.8 0-124.8 56-124.8 124.6s56 124.6 124.8 124.6 124.8-56 124.8-124.6-55.8-124.6-124.8-124.6zM659.2 482.421c51.8 0 93.8 42 93.8 93.6 0 51.8-42 93.6-93.8 93.6s-93.8-42-93.8-93.6c0.2-51.6 42.2-93.6 93.8-93.6z" />
<glyph unicode="&#xe948;" glyph-name="people" d="M672 448.021c-41.12 0-80.88 18.36-112 51.68-30.26 32.5-48.74 75.84-52 122-3.48 49.24 11.54 94.52 42.28 127.52s73.72 50.8 121.72 50.8c47.66 0 90.76-18.12 121.4-51.040 30.94-33.24 46-78.44 42.52-127.26-3.34-46.22-21.8-89.54-52-122-31.040-33.34-70.78-51.7-111.92-51.7zM935.66 96.021h-527.3c-0.088-0.001-0.192-0.001-0.297-0.001-17.703 0-33.467 8.3-43.613 21.221l-0.091 0.12c-7.731 10.050-12.39 22.812-12.39 36.663 0 5.3 0.682 10.44 1.963 15.338l-0.093-0.421c16.84 67.62 58.56 123.7 120.64 162.16 55.1 34.12 125.24 52.92 197.52 52.92 73.7 0 142-18 197.42-52.1 62.22-38.26 104-94.66 120.76-163.1 1.161-4.431 1.827-9.519 1.827-14.762 0-13.906-4.689-26.718-12.572-36.939l0.105 0.141c-10.227-12.982-25.947-21.241-43.596-21.241-0.1 0-0.2 0-0.299 0.001h0.015zM294 440.021c-70.38 0-132.26 65.44-138 145.86-2.84 41.2 10 79.3 36 107.24 25.72 27.66 62 42.9 102 42.9s76-15.32 101.86-43.14c26.2-28.16 39-66.18 36-107.040-5.74-80.4-67.6-145.82-137.86-145.82zM425.32 377.121c-35.18 17.2-80.84 25.8-131.3 25.8-58.92 0-116.14-15.36-161.14-43.24-51.020-31.66-85.34-77.76-99.2-133.42-1.066-4.038-1.678-8.674-1.678-13.454 0-12.57 4.234-24.151 11.353-33.395l-0.095 0.128c9.354-11.928 23.765-19.521 39.95-19.521 0.081 0 0.162 0 0.243 0.001h221.988c7.825 0.001 14.337 5.619 15.725 13.041l0.015 0.099c0.22 1.26 0.5 2.52 0.82 3.76 16.96 68.12 56.7 125.68 115.42 167.64 4.045 2.941 6.644 7.656 6.644 12.979 0 5.852-3.142 10.97-7.83 13.76l-0.074 0.041c-3.14 1.84-6.74 3.78-10.84 5.78z" />
<glyph unicode="&#xe949;" glyph-name="collect" d="M512.135 960.021c45.9-0.455 85.391-27.436 103.917-66.328l0.301-0.703 95.663-202.105 213.154-32.269c44.519-7.463 80.119-39.084 93.214-80.683l0.226-0.833c3.56-10.899 5.612-23.442 5.612-36.464 0-33.018-13.196-62.953-34.602-84.821l0.021 0.021-154.947-157.777 36.716-223.259c1.103-6.113 1.733-13.149 1.733-20.332 0-38.762-18.36-73.236-46.859-95.199l-0.281-0.208c-18.846-14.523-42.789-23.277-68.777-23.277-19.994 0-38.778 5.182-55.082 14.275l0.575-0.295-190.585 104.691-190.248-104.421c-15.729-8.799-34.513-13.98-54.507-13.98-25.988 0-49.931 8.754-69.043 23.474l0.265-0.196c-28.779 22.171-47.14 56.645-47.14 95.407 0 7.183 0.631 14.219 1.839 21.056l-0.106-0.724 36.648 223.259-155.352 157.777c-21.385 21.786-34.584 51.671-34.584 84.638 0 13.083 2.079 25.681 5.924 37.48l-0.241-0.855c13.404 42.382 49.046 73.932 92.889 81.22l0.685 0.094 213.086 31.865 106.509 225.617h3.571c21.177 26.619 53.48 43.603 89.76 43.857h0.042zM756.952 16.863c0.087-0.001 0.19-0.001 0.292-0.001 7.526 0 14.46 2.534 19.995 6.795l-0.077-0.057c9.226 7.395 15.083 18.663 15.083 31.3 0 2.438-0.218 4.824-0.635 7.142l0.036-0.243-43.722 263.949 184.051 187.082c6.997 7.257 11.307 17.145 11.307 28.040 0 4.424-0.711 8.682-2.024 12.667l0.082-0.286c-3.806 13.215-14.67 23.157-28.145 25.568l-0.217 0.032-256 38.737-113.718 240.842c-5.194 12.316-17.168 20.804-31.124 20.804s-25.93-8.488-31.041-20.583l-0.083-0.221-114.055-241.044-256-38.602c-13.719-2.419-24.613-12.368-28.367-25.347l-0.063-0.253c-1.243-3.714-1.96-7.99-1.96-12.434 0-10.869 4.29-20.737 11.27-28.001l-0.013 0.014 184.522-187.015-43.318-263.815c-0.381-2.074-0.599-4.461-0.599-6.898 0-12.636 5.857-23.905 15.004-31.239l0.079-0.061c5.453-4.211 12.386-6.75 19.911-6.75 5.741 0 11.137 1.478 15.828 4.073l-0.168-0.085 229.053 125.642 229.053-125.777c4.473-2.502 9.814-3.975 15.499-3.975 0.069 0 0.139 0 0.208 0.001h-0.011z" />
<glyph unicode="&#xe94a;" glyph-name="order" horiz-adv-x="768" d="M637.44 615.957c6.524-7.13 10.521-16.666 10.521-27.136s-3.997-20.006-10.548-27.167l0.028 0.031-96-102.4c-6.338-6.997-15.458-11.374-25.6-11.374s-19.262 4.377-25.574 11.345l-0.026 0.029-48 51.2c-7.092 7.242-11.469 17.167-11.469 28.114 0 10.014 3.663 19.173 9.721 26.211l-0.044-0.053c6.36 7.602 15.851 12.402 26.462 12.402 9.704 0 18.47-4.014 24.729-10.473l0.009-0.009 1.792-1.92 22.528-24.064 70.4 75.264c6.338 6.997 15.458 11.374 25.6 11.374s19.262-4.377 25.574-11.345l0.026-0.029zM637.568 280.085c7.092 7.242 11.469 17.167 11.469 28.114 0 10.014-3.663 19.173-9.721 26.211l0.044-0.053c-6.36 7.602-15.851 12.402-26.462 12.402-9.704 0-18.47-4.014-24.729-10.473l-0.009-0.009-1.792-1.92-70.4-75.264-22.528 24.064c-6.36 7.602-15.851 12.402-26.462 12.402-9.704 0-18.47-4.014-24.729-10.473l-0.009-0.009c-7.092-7.242-11.469-17.167-11.469-28.114 0-10.014 3.663-19.173 9.721-26.211l-0.044 0.053 1.792-1.92 48-51.2c6.338-6.997 15.458-11.374 25.6-11.374s19.262 4.377 25.574 11.345l0.026 0.029zM144 537.621c-0.012 0.349-0.018 0.759-0.018 1.171 0 20.15 16.001 36.564 35.99 37.227l0.061 0.002h168c21.208 0 38.4-17.192 38.4-38.4s-17.192-38.4-38.4-38.4h-168c-20.022 0.7-35.986 17.099-35.986 37.227 0 0.413 0.007 0.824 0.020 1.233l-0.002-0.060zM180.096 294.421c-21.208 0-38.4-17.192-38.4-38.4s17.192-38.4 38.4-38.4h167.936c21.208 0 38.4 17.192 38.4 38.4s-17.192 38.4-38.4 38.4v0zM575.36 857.621c-4.386 56.406-50.425 100.735-107.167 102.396l-0.161 0.004h-168c-56.931-1.632-103.003-45.973-107.368-102.019l-0.024-0.381h-84.608c-60.121-2.030-108.087-51.256-108.087-111.684 0-1.236 0.020-2.468 0.060-3.695l-0.005 0.179v-691.2c-0.035-1.048-0.055-2.279-0.055-3.516 0-60.429 47.966-109.654 107.902-111.679l0.185-0.005h552c60.093 2.065 108.023 51.276 108.023 111.682 0 1.237-0.020 2.47-0.060 3.697l0.005-0.179v691.2c0.035 1.048 0.055 2.281 0.055 3.518 0 60.406-47.931 109.617-107.835 111.677l-0.189 0.005zM300.16 729.621h167.872c37.84 0.482 70.863 20.661 89.336 50.738l0.264 0.462h102.4c20.050-0.665 36.050-17.078 36.050-37.229 0-0.412-0.007-0.822-0.020-1.231l0.002 0.060v-691.2c0.012-0.35 0.018-0.761 0.018-1.173 0-20.128-15.965-36.527-35.923-37.225l-0.064-0.002h-552.064c-20.022 0.7-35.986 17.099-35.986 37.227 0 0.413 0.007 0.824 0.020 1.233l-0.002-0.060v691.2c-0.012 0.349-0.018 0.759-0.018 1.171 0 20.15 16.001 36.564 35.99 37.227l0.061 0.002h102.4c18.737-30.539 51.76-50.718 89.53-51.199l0.070-0.001zM300.096 883.221h167.936c20.050-0.665 36.050-17.078 36.050-37.229 0-0.412-0.007-0.822-0.020-1.231l0.002 0.060c0.012-0.35 0.018-0.761 0.018-1.173 0-20.128-15.965-36.527-35.923-37.225l-0.064-0.002h-168.064c-20.022 0.7-35.986 17.099-35.986 37.227 0 0.413 0.007 0.824 0.020 1.233l-0.002-0.060c-0.012 0.349-0.018 0.759-0.018 1.171 0 20.15 16.001 36.564 35.99 37.227l0.061 0.002z" />
<glyph unicode="&#xe94b;" glyph-name="record" horiz-adv-x="896" d="M726.912 647.253l-274.88 284.224c-0.699 0.667-1.45 1.297-2.241 1.876l-0.063 0.044-1.728 1.472c-3.137 3.063-6.498 5.937-10.041 8.581l-0.263 0.187c-1.077 0.745-2.314 1.469-3.604 2.1l-0.172 0.076-2.304 1.408-2.368 1.152c-2.162 1.378-4.722 2.786-7.37 4.038l-0.438 0.186c-8.652 3.686-18.683 6.097-29.197 6.709l-0.243 0.011c-1.052 0.090-1.993 0.226-2.916 0.411l0.164-0.027c-1.169 0.196-2.52 0.313-3.897 0.32h-291.015c-52.304-0.928-94.349-43.547-94.349-95.986 0-0.545 0.005-1.089 0.014-1.632l-0.001 0.082v-780.16c-0.008-0.461-0.013-1.005-0.013-1.55 0-52.439 42.044-95.057 94.261-95.985l0.087-0.001h321.152c-19.596 21.042-36.482 44.998-49.858 71.053l-0.83 1.779h-270.464c-13.062 0.25-23.555 10.897-23.555 23.996 0 0.136 0.001 0.273 0.003 0.409v-0.020 780.48c-0.002 0.115-0.003 0.252-0.003 0.388 0 13.098 10.493 23.746 23.532 23.996h282.967v-219.392c-0.012-0.557-0.018-1.213-0.018-1.871 0-52.418 42.011-95.024 94.2-95.983l0.090-0.001h212.224v-52.48c26.529-4.332 50.295-11.507 72.618-21.355l-1.898 0.747v81.792c0 0.057 0 0.125 0 0.193 0 26.695-10.537 50.928-27.68 68.768l0.032-0.033zM448 832.021l182.848-188.928h-159.296c-13.062 0.25-23.555 10.897-23.555 23.996 0 0.136 0.001 0.273 0.003 0.409v-0.020zM318.336 204.181h11.776c0-0.101 0-0.22 0-0.339 0-25.816 2.985-50.935 8.63-75.030l-0.438 2.217h-19.968c-19.549 0.843-35.078 16.896-35.078 36.576s15.529 35.733 35.002 36.573l0.076 0.003zM338.304 277.333c6.514 27.765 15.616 52.155 27.346 74.972l-0.85-1.82h-46.464c-19.549-0.843-35.078-16.896-35.078-36.576s15.529-35.733 35.002-36.573l0.076-0.003zM415.488 423.637c28.333 30.621 62.57 55.325 100.958 72.377l1.954 0.775h-200.064c-19.549-0.843-35.078-16.896-35.078-36.576s15.529-35.733 35.002-36.573l0.076-0.003zM176.832 496.789c-0.362 0.013-0.788 0.020-1.216 0.020-20.218 0-36.608-16.39-36.608-36.608s16.39-36.608 36.608-36.608c20.218 0 36.608 16.39 36.608 36.608 0 0.015 0 0.031 0 0.046v-0.002c0.003 0.173 0.005 0.376 0.005 0.581 0 19.664-15.779 35.642-35.367 35.963h-0.030zM141.504 313.621c0.64 19.044 16.232 34.24 35.373 34.24 19.546 0 35.392-15.846 35.392-35.392 0-19.54-15.835-35.381-35.372-35.392h-0.001c-19.617 0.322-35.397 16.3-35.397 35.963 0 0.204 0.002 0.408 0.005 0.611v-0.031zM141.504 167.317c0.64 19.044 16.232 34.24 35.373 34.24 19.546 0 35.392-15.846 35.392-35.392 0-19.54-15.835-35.381-35.372-35.392h-0.001c-19.617 0.322-35.397 16.3-35.397 35.963 0 0.204 0.002 0.408 0.005 0.611v-0.031zM896 204.181c0.023 1.287 0.035 2.805 0.035 4.325 0 144.17-115.619 261.335-259.193 263.831l-0.234 0.003c-143.808-2.499-259.427-119.665-259.427-263.835 0-1.521 0.013-3.039 0.038-4.553l-0.003 0.228c-0.023-1.287-0.035-2.805-0.035-4.325 0-144.17 115.619-261.335 259.193-263.831l0.234-0.003c143.808 2.499 259.427 119.665 259.427 263.835 0 1.521-0.013 3.039-0.038 4.553l0.003-0.228zM623.424 183.829c-6.426 4.51-10.575 11.886-10.575 20.231 0 1.285 0.098 2.547 0.288 3.779l-0.017-0.138v191.552c-0.020 0.367-0.032 0.797-0.032 1.229 0 13.043 10.573 23.616 23.616 23.616s23.616-10.573 23.616-23.616c0-0.432-0.012-0.862-0.035-1.288l0.003 0.060v-170.688h117.696c13.467 0 24.384-10.917 24.384-24.384s-10.917-24.384-24.384-24.384h-138.496c-0.849-0.11-1.83-0.173-2.826-0.173-4.952 0-9.543 1.55-13.313 4.19l0.075-0.050z" />
<glyph unicode="&#xe94c;" glyph-name="arrow-top" d="M696.6 527.221c-10-10.2-26.6-10.2-36.8-0.2l-121.8 121.4v-462.6c0-14.2-11.6-25.8-26-25.8s-26 11.6-26 25.8v462.6l-121.8-121.6c-10.2-10-26.6-9.8-36.8 0.2-10 10.2-10 26.4 0.2 36.6l166 164.8c0 0 0 0 0 0 2.4 2.2 5 4 8.2 5.4s6.6 2 10 2c6.8 0 13.2-2.6 18.2-7.4l166-164.8c10.4-9.8 10.6-26.2 0.6-36.4z" />
<glyph unicode="&#xe94d;" glyph-name="other" horiz-adv-x="1344" d="M638.656 552.533v-546.88c-7.551 1.48-14.156 3.449-20.483 5.967l0.771-0.271s-335.872 111.808-367.168 121.6c-22.144 6.4-28.096 17.024-43.136 22.4v499.2l428.288-101.056zM88.704 195.605c-2.688 0-22.784 0-25.6 0-26.688 0-24.32 32-24.32 32l-17.28 470.4 3.968-0.896 56.32-14.080zM183.424 162.837c-41.536 2.368-49.984 5.696-59.136 20.928-2.936 4.571-7.393 7.947-12.644 9.434l-0.156 0.038v483.584l66.176-16.512zM768.384 521.877v-552.128c-1.959-0.086-4.258-0.134-6.567-0.134-18.402 0-36.081 3.095-52.545 8.794l1.128-0.34c-33.536 9.472-40.512 26.176-40.512 26.176h-0.896v541.056zM839.232 510.485v-569.152c-4.478-0.815-9.632-1.281-14.894-1.281-0.141 0-0.283 0-0.424 0.001h0.022c-12.059 0.704-22.688 6.291-30.034 14.793l-0.046 0.055v561.024c13.622-3.378 29.279-5.356 45.385-5.44h0.055zM1328.512 686.357c-2.24-63.232-16.64-448.576-16.64-470.4 0-23.808-10.688-30.976-10.688-30.976s-338.24-204.8-367.168-224.704c-11.415-11.029-26.982-17.825-44.135-17.825-6.162 0-12.119 0.877-17.754 2.513l0.449-0.112c-2.048 0.543-4.489 0.973-6.988 1.203l-0.18 0.013v565.952h0.96c18.363 2.374 35.018 6.865 50.678 13.284l-1.334-0.484 409.024 160zM1332.608 687.893c-2.176-57.6-16.896-450.176-16.896-472 0-25.6-11.968-33.92-12.8-34.24-3.52-2.176-338.56-204.8-367.040-224.64-12.011-11.502-28.336-18.582-46.314-18.582-6.48 0-12.744 0.92-18.671 2.636l0.473-0.117c-2.706 0.752-5.813 1.185-9.022 1.185-4.392 0-8.594-0.81-12.466-2.289l0.24 0.080c-7.703-2.438-16.562-3.843-25.749-3.843-0.24 0-0.48 0.001-0.72 0.003h0.037c-14.254 1.086-26.719 7.945-35.195 18.218l-0.069 0.086c-6.4 6.4-11.776 11.392-18.048 11.392h-5.056c-1.24-0.034-2.699-0.053-4.163-0.053-18.622 0-36.512 3.136-53.169 8.909l1.14-0.344c-16.999 3.385-31.423 12.606-41.42 25.445l-0.116 0.155c-2.568-0.207-5.56-0.325-8.58-0.325-15.071 0-29.456 2.94-42.612 8.278l0.76-0.272c-3.072 0.96-335.872 111.744-366.784 121.088-10.557 3.293-19.741 8.026-27.899 14.066l0.251-0.178c-9.752 7.623-22.188 12.224-35.699 12.224-1.356 0-2.701-0.046-4.034-0.137l0.18 0.010c-38.4 0-52.224 9.856-62.4 26.88-6.4 11.008-24.448 10.624-45.248 10.176-4.16 0-8.448 0-12.8 0-0.295-0.012-0.641-0.019-0.988-0.019-7.417 0-14.098 3.154-18.773 8.195l-0.015 0.016c-5.327 7.015-8.534 15.894-8.534 25.523 0 0.95 0.031 1.894 0.093 2.828l-0.007-0.127-16.832 470.848 7.808-1.792 17.024-469.248c-0.050-0.703-0.078-1.523-0.078-2.35 0-7.636 2.427-14.704 6.551-20.477l-0.073 0.107c3.273-3.45 7.891-5.596 13.010-5.596 0.354 0 0.706 0.010 1.055 0.031l-0.048-0.002h12.8c3.025 0.261 6.546 0.41 10.102 0.41 9.161 0 18.091-0.989 26.689-2.865l-0.823 0.151c6.85-1.676 12.513-5.878 16.064-11.539l0.064-0.109c7.68-12.8 55.744-23.040 55.744-23.040 0.58 0.015 1.263 0.024 1.947 0.024 8.28 0 16.264-1.272 23.765-3.632l-0.56 0.152c7.137-2.622 13.315-6.015 18.878-10.184l-0.19 0.136c7.328-5.379 15.829-9.738 24.981-12.631l0.619-0.169c30.976-9.408 363.968-120.256 367.296-121.6 5.177-2.094 11.349-3.95 17.723-5.255l0.709-0.121c5.939-1.37 12.758-2.156 19.761-2.156 3.749 0 7.446 0.225 11.077 0.663l-0.438-0.043 2.944 0.384 1.152-2.816s7.040-15.104 38.016-23.936c15.028-5.22 32.349-8.234 50.374-8.234 1.281 0 2.558 0.015 3.831 0.045l-0.189-0.004h5.184c9.474-1.279 17.611-6.178 23.109-13.234l0.059-0.078c7.173-9.017 17.767-15.047 29.788-16.116l0.164-0.012c5.624 0.006 11.103 0.611 16.381 1.757l-0.509-0.093c3.648 0.69 6.702 1.465 9.686 2.402l-0.598-0.162c4.421 1.575 9.52 2.485 14.831 2.485 0.771 0 1.538-0.019 2.3-0.057l-0.107 0.004c3.078-0.301 5.846-0.775 8.544-1.429l-0.416 0.085c4.889-1.432 10.504-2.256 16.313-2.256 16.346 0 31.168 6.526 42.002 17.115l-0.011-0.011c28.672 20.096 353.536 216.576 367.36 224.896 0 0 8.768 6.4 8.768 27.456 0 21.888 14.080 399.040 16.704 468.864l7.040 2.816 0.832 0.32zM1329.216 757.269l-436.608-168.448c-8.562-3.065-18.446-4.964-28.733-5.245l-0.131-0.003c-2.688 0-5.504 0-8.192 0s-3.584 0-5.376 0.384c-3.52 0.512-7.104 1.024-10.624 1.856l-818.624 187.392c0.208 10.055 3.035 19.408 7.822 27.458l-0.142-0.258c9.54 16.184 24.44 28.343 42.213 34.151l0.539 0.153 360.448 119.488c6.35 2.212 13.816 3.963 21.525 4.935l0.555 0.057 2.816 0.32c2.112 0.512 4.16 0.512 6.272 0.512 1.367 0.077 2.966 0.12 4.576 0.12s3.209-0.044 4.797-0.13l-0.221 0.010c6.704-0.219 13.087-1.001 19.278-2.302l-0.718 0.126c197.696-40.704 770.368-157.824 807.616-166.464 17.39-1.368 30.983-15.816 30.983-33.439 0-0.237-0.002-0.473-0.007-0.709l0.001 0.035zM1344 727.317c-0.949-11.163-7.945-20.488-17.665-24.757l-416.191-163.019c-13.287-5.378-28.74-9.444-44.826-11.487l-0.934-0.097c-6.643-0.995-14.309-1.563-22.107-1.563-1.025 0-2.049 0.010-3.069 0.029l0.153-0.002c-15.040 0.065-29.618 1.905-43.579 5.32l1.275-0.264-775.808 182.656c-0.253-0.011-0.55-0.018-0.848-0.018-11.311 0-20.48 9.169-20.48 20.48 0 0.637 0.029 1.267 0.086 1.89l-0.006-0.080c-0.004 0.17-0.007 0.37-0.007 0.571 0 9.265 5.279 17.298 12.992 21.254l0.134 0.063 821.952-187.712c7.469-1.785 16.045-2.809 24.861-2.809 13.199 0 25.863 2.295 37.613 6.508l-0.777-0.243 437.952 168.64c2.24 0 9.536-1.664 8.96-15.36z" />
<glyph unicode="&#xe951;" glyph-name="wechat" d="M350.752 606.133c-0.009 0-0.021 0-0.032 0-16.224 0-29.376-13.152-29.376-29.376s13.152-29.376 29.376-29.376c16.201 0 29.339 13.116 29.376 29.308v0.004c0 0.029 0 0.062 0 0.096 0 16.206-13.138 29.344-29.344 29.344 0 0 0 0 0 0v0zM577.408 449.685c-13.538 0-24.512-10.974-24.512-24.512s10.974-24.512 24.512-24.512c13.538 0 24.512 10.974 24.512 24.512v0c0 13.538-10.974 24.512-24.512 24.512v0zM501.696 547.349c16.206 0 29.344 13.138 29.344 29.344s-13.138 29.344-29.344 29.344c-16.206 0-29.344-13.138-29.344-29.344v0c0-16.206 13.138-29.344 29.344-29.344v0zM696.352 449.877c-13.538 0-24.512-10.974-24.512-24.512s10.974-24.512 24.512-24.512c13.538 0 24.512 10.974 24.512 24.512v0c0 13.538-10.974 24.512-24.512 24.512v0zM512 960.021c-282.77 0-512-229.23-512-512s229.23-512 512-512c282.77 0 512 229.23 512 512v0c0 282.77-229.23 512-512 512v0zM421.696 325.013c-27.802 1.131-54.124 5.079-79.422 11.58l2.622-0.572-76.8-38.4 21.888 65.984c-51.219 30.847-85.505 85.275-87.799 147.87l-0.009 0.322c0 104.384 98.816 186.688 219.52 186.688 107.904 0 202.496-65.696 221.504-154.112-6.293 0.797-13.613 1.273-21.037 1.312h-0.051c-2.053 0.084-4.463 0.132-6.883 0.132-97.202 0-176.39-77.129-179.7-173.525l-0.008-0.303c0.058-16.415 2.533-32.231 7.087-47.139l-0.303 1.155c-6.784-0.608-13.696-0.896-20.608-0.896zM745.504 248.213l16.512-54.816-60.192 32.896c-19.476-5.981-42.006-9.929-65.29-10.986l-0.598-0.022c-104.416 0-186.72 71.392-186.72 159.296s82.208 159.296 186.72 159.296c98.592 0 186.4-71.488 186.4-159.296-4.668-53.319-33.879-98.957-76.134-126.001l-0.666-0.399z" />
<glyph unicode="&#xe956;" glyph-name="menu-er" d="M851.782 423.166h-230.353v-123.671h133.585v24.762c0 57.67 25.088 51.759 62.697 18.618l139.636-107.892c8.388-6.577 13.99-16.377 14.931-27.504l0.010-0.144c-0.988-10.604-6.625-19.718-14.825-25.385l-0.116-0.076-139.636-100.073c-37.609-30.673-62.697-40.076-62.697 17.315v25.041h-133.585v-62.371c-6.667-43.603-43.906-76.617-88.855-76.617s-82.189 33.014-88.792 76.117l-0.063 0.5v62.371h-219.881c-44.334 5.051-78.457 42.351-78.457 87.622s34.123 82.571 78.052 87.584l0.406 0.038h219.881v123.671h-133.585v-24.995c0-57.67-25.088-51.759-62.743-18.618l-139.636 107.892c-8.767 6.138-14.486 16.109-14.708 27.428l-0.001 0.034c0.198 10.814 5.979 20.236 14.576 25.524l0.133 0.076 139.636 100.073c37.609 30.673 62.743 40.076 62.743-17.315v-25.088h122.089l-171.334 179.526c-13.867 14.17-22.424 33.586-22.424 55 0 24.18 10.91 45.811 28.076 60.241l0.12 0.098c15.414 12.534 35.284 20.125 56.928 20.125 25.618 0 48.752-10.635 65.227-27.731l0.027-0.028 143.686-154.391 143.686 154.391c16.502 17.124 39.636 27.759 65.254 27.759 21.644 0 41.514-7.591 57.094-20.257l-0.167 0.131c17.286-14.528 28.196-36.16 28.196-60.34 0-21.414-8.557-40.83-22.438-55.014l0.014 0.014-171.334-179.526h218.764c44.334-5.051 78.457-42.351 78.457-87.622s-34.123-82.571-78.052-87.584l-0.406-0.038z" />
<glyph unicode="&#xe957;" glyph-name="menu-cs" d="M464.244 910.124c-235.696-24.503-417.891-222.084-417.891-462.219 0-109.239 37.703-209.672 100.806-288.995l-0.728 0.948-26.345-135.913c-0.226-1.099-0.355-2.361-0.355-3.654 0-10.488 8.502-18.991 18.991-18.991 2.228 0 4.366 0.384 6.352 1.088l-0.133-0.041 130.327 44.916c67.588-40.54 149.129-64.516 236.271-64.516 256.755 0 464.896 208.141 464.896 464.896s-208.141 464.896-464.896 464.896c-16.674 0-33.143-0.878-49.364-2.59l2.021 0.173zM790.807 342.735c0-12.853-10.42-23.273-23.273-23.273v0h-87.18c-12.853 0-23.273 10.42-23.273 23.273v0 126.324c0.142 11.572 8.708 21.101 19.841 22.745l0.127 0.015c-15.107 71.756-77.886 124.849-153.065 124.849s-137.957-53.093-152.885-123.829l-0.18-1.019c11.26-1.66 19.826-11.189 19.968-22.746v-126.432c0-12.853-10.42-23.273-23.273-23.273v0h-14.662c3.274-51.815 42.276-93.607 92.49-101.162l0.601-0.074c2.779 7.006 9.498 11.869 17.352 11.869 0.003 0 0.007 0 0.010 0h72.005c10.283 0 18.618-8.336 18.618-18.618v-39.191c0-10.283-8.336-18.618-18.618-18.618v0h-72.332c-8.547 0.095-15.704 5.934-17.798 13.834l-0.029 0.13c-78.49 8.423-139.557 72.622-143.022 151.775l-0.012 0.336h-22.156c-12.853 0-23.273 10.42-23.273 23.273v0 126.138c0 12.853 10.42 23.273 23.273 23.273v0h2.048c16.228 120.241 118.2 211.962 241.594 211.962s225.366-91.722 241.455-210.706l0.139-1.256h2.048c12.853 0 23.273-10.42 23.273-23.273v0-126.511z" />
<glyph unicode="&#xe958;" glyph-name="menu-top" d="M784.756 521.842c0.005 0.817 0.008 1.783 0.008 2.75 0 185.161-100.5 346.85-249.928 433.492l-2.402 1.285v0.419h-0.838v-0.419c-151.826-87.882-252.331-249.539-252.331-434.669 0-1.005 0.003-2.009 0.009-3.012l-0.001 0.154c-56.378-34.311-93.456-95.427-93.456-165.204 0-7.72 0.454-15.334 1.336-22.816l-0.087 0.907c8.192-98.257 102.679-163.421 138.845-159.884s25.647 30.813 25.647 30.813l12.428 50.921s53.341-81.92 70.423-81.873c15.36 1.257 88.436 0 97.187 0h0.838c8.751 0 81.78 1.257 97.14 0 17.082 0 70.47 81.873 70.47 81.873l12.335-50.921s-10.473-27.276 25.693-30.813 130.7 61.626 138.845 159.884c0.793 6.569 1.246 14.175 1.246 21.886 0 69.771-37.054 130.888-92.557 164.745l-0.849 0.481zM532.015 526.171c-58.116 1.655-104.597 49.162-104.597 107.526 0 0.505 0.003 1.010 0.010 1.514l-0.001-0.076c-0.089 1.615-0.14 3.505-0.14 5.406 0 57.839 46.888 104.727 104.727 104.727s104.727-46.888 104.727-104.727c0-1.902-0.051-3.791-0.151-5.668l0.011 0.262c0.005-0.4 0.008-0.873 0.008-1.347 0-58.382-46.47-105.909-104.439-107.612l-0.157-0.004zM479.139 17.382c0.015-0.298 0.023-0.647 0.023-0.998 0-11.825-9.586-21.411-21.411-21.411s-21.411 9.586-21.411 21.411c0 0.351 0.008 0.7 0.025 1.047l-0.002-0.049v107.38c-0.015 0.298-0.023 0.647-0.023 0.998 0 11.825 9.586 21.411 21.411 21.411s21.411-9.586 21.411-21.411c0-0.351-0.008-0.7-0.025-1.047l0.002 0.049v-107.38zM557.708-40.799c0-11.979-9.711-21.69-21.69-21.69s-21.69 9.711-21.69 21.69c0 0 0 0 0 0v0 159.651c0 11.979 9.711 21.69 21.69 21.69s21.69-9.711 21.69-21.69c0 0 0 0 0 0v0zM630.039 42.61c0-11.799-9.565-21.364-21.364-21.364s-21.364 9.565-21.364 21.364c0 0 0 0 0 0v0 76.614c0 11.799 9.565 21.364 21.364 21.364s21.364-9.565 21.364-21.364c0 0 0 0 0 0v0z" />
<glyph unicode="&#xe95b;" glyph-name="copy" d="M354.389 771.349h503.893c91.484-0.097 165.62-74.233 165.717-165.708v-503.902c-0.097-91.484-74.233-165.62-165.708-165.717h-503.903c-91.484 0.097-165.62 74.233-165.717 165.708v503.902c0.097 91.484 74.233 165.62 165.708 165.717h0.009zM858.283 8.64c51.397 0.049 93.050 41.701 93.099 93.094v503.898c-0.049 51.397-41.701 93.050-93.094 93.099h-503.898c-51.397-0.049-93.050-41.701-93.099-93.094v-503.898c0.049-51.397 41.701-93.050 93.094-93.099h0.005zM217.941 124.693h-54.443c-90.083 0.385-163.016 73.259-163.498 163.282v490.457c0.482 100.065 81.446 181.059 181.453 181.589h490.462c90.046-0.433 162.931-73.289 163.413-163.282v-0.046l-1.109-55.296c-1.272-19.039-17.027-34-36.276-34-19.79 0-35.886 15.813-36.342 35.494l-0.001 0.042 1.109 54.443c-0.672 49.747-41.063 89.839-90.862 90.027h-490.258c-60.057-0.385-108.634-48.992-108.971-109.024v-490.187c0.289-50.058 40.815-90.554 90.857-90.795h54.38c19.305-0.965 34.591-16.852 34.591-36.309s-15.287-35.344-34.505-36.306l-0.086-0.003z" />
</font>
</defs>
</svg>
